Subcategories

Lick Library - Bass Guitar From Scratch [repost]

Posted By: ParRus
Lick Library - Bass Guitar From Scratch [repost]

Lick Library - Bass Guitar From Scratch
DVD5 | English | VIDEO_TS | 720 x 576 | MPEG2 ~4005 kbps | 25 fps
AC-3 192 Kbps 48.0 KHz | 2 channels | 01:38:20 | 3.14 GB
Genre: eLearning Video / Guitar lesson

A complete bass guitar course for absolute beginners with Phil Williams. This easy-to-follow tutorial is ideal if you've just bought your first bass guitar or if there's been a guitar sitting around somewherejust waiting to be strummed. This DVD will take you from novice level thorough to intermediate level. Yet it requires no prior knowledge at all; it truly is for someone starting from the beginning.
Slowly but surely the DVD guides you through all the things that a beginner needs to know and points out what can go wrong. Each of the carefully designed chapters introduces commonly used scales and technique gradually and strategically along with some practical theory. Nothing too demanding just enough to help you understand what you're doing and why. You'll soon be playing scales picking out melodies and hopefully writing some songs of your own] Making music has never been so easy. Paul Williams is a highly sought-after freelance bass player writer and teacher. He has played and toured with many well known bands and artists as diverse as Gary Barlow Roger Daltrey and Keith Emerson. His playing can be heard on numerous film and TV soundtracks.

also You can look my other last: Guitar Lessons-posts

General
Complete name : VTS_09_1.VOB
Format : MPEG-PS
File size : 365 MiB
Duration : 11mn 55s
Overall bit rate mode : Variable
Overall bit rate : 4 282 Kbps

Video
ID : 224 (0xE0)
Format : MPEG Video
Format version : Version 2
Format profile : Main@Main
Format settings, BVOP : Yes
Format settings, Matrix : Custom
Format settings, GOP : M=3, N=15
Duration : 11mn 55s
Bit rate mode : Variable
Bit rate : 4 005 Kbps
Maximum bit rate : 7 000 Kbps
Width : 720 pixels
Height : 576 pixels
Display aspect ratio : 16:9
Frame rate : 25.000 fps
Standard : PAL
Color space : YUV
Chroma subsampling : 4:2:0
Bit depth : 8 bits
Scan type : Interlaced
Scan order : Bottom Field First
Compression mode : Lossy
Bits/(Pixel*Frame) : 0.386
Time code of first frame : 00:00:00:00
Time code source : Group of pictures header
Stream size : 341 MiB (94%)

Audio
ID : 189 (0xBD)-128 (0x80)
Format : AC-3
Format/Info : Audio Coding 3
Mode extension : CM (complete main)
Format settings, Endianness : Big
Muxing mode : DVD-Video
Duration : 11mn 55s
Bit rate mode : Constant
Bit rate : 192 Kbps
Channel(s) : 2 channels
Channel positions : Front: L R
Sampling rate : 48.0 KHz
Bit depth : 16 bits
Compression mode : Lossy
Stream size : 16.4 MiB (4%)

Menu
Screenshots

Lick Library - Bass Guitar From Scratch [repost]

Lick Library - Bass Guitar From Scratch [repost]

Lick Library - Bass Guitar From Scratch [repost]

Lick Library - Bass Guitar From Scratch [repost]

Lick Library - Bass Guitar From Scratch [repost]

Exclusive eLearning Videos ParRus-blogadd to bookmarks

Lick Library - Bass Guitar From Scratch [repost]