Lisa Jacobs - 24 Caprices of Niccolo Paganini (2018) [Official Digital Download 24/88]

Posted By: SERTiL
Lisa Jacobs - 24 Caprices of Niccolo Paganini (2018) [Official Digital Download 24/88]

Lisa Jacobs - 24 Caprices of Niccolo Paganini (2018)
FLAC (tracks) 24-bit/88.2 kHz | Time - 86:49 minutes | 1.58 GB
Studio Master, Official Digital Download | Artwork: Front Cover

No violinist can escape them: Paganini’s Caprices. A beautiful, infamous cycle of 24 works for violin solo with an enormous arsenal of technical delights.

With his 24 Caprices Niccolò Paganini set out to fascinate the audience and play the kind of music that people had never experienced before. As a young talent Niccolò had shocked and enraged the public by imitating animals using his violin and in the Caprices he elaborated on that earlier experimentation. Bird-song, hunting horns, laughter, donkeys - they were all brought to life through his instrument. When it comes to special techniques and almost impossible dexterity, his 24 Caprices go a step further than Locatellis. Above all Paganini’s caprices are full of drama. Calm and moving passages interchange without warning withfiery, almost violent passages.

For Lisa Jacobs it is not the technical aspects of the music, but exactly that enormous variety in the musical characters, the extraordinary sound landscape, and the fantasy and lyricism that has amazed her all her life and has been an inspiration for this recording.

Dutch violinist Lisa Jacobs performs three of Locatteli’s concertos with bold characterization, and meets their formidable technical challenges with commendable athleticism and élan. (The Strad, UK, 2017)

Dutch violin virtuoso Lisa Jacobs is known for her passionate performances, interesting programs and communicative qualities on stage. She is equally at home on the concert stage with concertos, chamber music and solo works. Lisa Jacobs collaborated with amongst others the Royal Concertgebouw Orchestra, Brussels Philharmonic, Bremer Philharmoniker and respected conductors such as Riccardo Chaily, Neeme Järvi, Massimo Quarta, Otto Tausk, Jan Willem de Vriend and Carlos Miguel Prieto.

Tracklist:
1. 24 Caprices, Op. 1, No. 1 in E Major 'L'Arpeggio': Andante (01:59)
2. 24 Caprices, Op. 1, No. 2 in B Minor: Moderato (03:37)
3. 24 Caprices, Op. 1, No. 3 in E Minor: Sostenuto – Presto – Sostenuto (03:49)
4. 24 Caprices, Op. 1, No. 4 in C Minor: Maestoso (08:17)
5. 24 Caprices, Op. 1, No. 5 in A Minor: Agitato (02:38)
6. 24 Caprices, Op. 1, No. 6 in G Minor 'The Trill': Lento (05:17)
7. 24 Caprices, Op. 1, No. 7 in A Minor: Posato (04:32)
8. 24 Caprices, Op. 1, No. 8 in E-flat Major: Maestoso (03:14)
9. 24 Caprices, Op. 1, No. 9 in E Major 'La chasse': Allegretto (03:43)
10. 24 Caprices, Op. 1, No. 10 in G Minor: Vivace (02:43)
11. 24 Caprices, Op. 1, No. 11 in C Major: Andante – Presto – Primo tempo (04:38)
12. 24 Caprices, Op. 1, No. 12 in A-flat Major: Allegro (02:44)
13. 24 Caprices, Op. 1, No. 13 in B-flat Major 'Devil's Laughter': Allegro (02:33)
14. 24 Caprices, Op. 1, No. 14 in E-flat Major: Moderato (01:39)
15. 24 Caprices, Op. 1, No. 15 in E Minor: Posato (03:20)
16. 24 Caprices, Op. 1, No. 16 in G Minor: Presto (01:39)
17. 24 Caprices, Op. 1, No. 17 in E-flat Major: Sostenuto – Andante (03:55)
18. 24 Caprices, Op. 1, No. 18 in C Major: Corrente – Allegro (03:05)
19. 24 Caprices, Op. 1, No. 19 in E-flat Major: Lento – Allegro Assai (03:32)
20. 24 Caprices, Op. 1, No. 20 in D Major: Allegretto (03:35)
21. 24 Caprices, Op. 1, No. 21 in A Major: Amoroso – Presto (03:54)
22. 24 Caprices, Op. 1, No. 22 in F Major: Marcato (02:36)
23. 24 Caprices, Op. 1, No. 23 in E-flat Major: Posato (04:39)
24. 24 Caprices, Op. 1, No. 24 in A Minor: Tema quasi presto - Variazioni - Finale (05:11)

Personnel:
Lisa Jacobs, violine

foobar2000 1.3.7 / Dynamic Range Meter 1.1.1
log date: 2018-06-14 10:06:14

––––––––––––––––––––––––––––––––––––––––
Analyzed: Lisa Jacobs / 24 Caprices of Niccolo Paganini
––––––––––––––––––––––––––––––––––––––––

DR Peak RMS Duration Track
––––––––––––––––––––––––––––––––––––––––
DR14 -5.41 dB -24.93 dB 2:00 01-24 Caprices, Op. 1, No. 1 in E Major 'L'Arpeggio': Andante
DR13 -7.41 dB -27.48 dB 3:37 02-24 Caprices, Op. 1, No. 2 in B Minor: Moderato
DR13 -9.03 dB -28.01 dB 3:50 03-24 Caprices, Op. 1, No. 3 in E Minor: Sostenuto – Presto – Sostenuto
DR15 -7.55 dB -26.69 dB 8:18 04-24 Caprices, Op. 1, No. 4 in C Minor: Maestoso
DR17 -0.66 dB -24.47 dB 2:39 05-24 Caprices, Op. 1, No. 5 in A Minor: Agitato
DR14 -9.69 dB -28.94 dB 5:17 06-24 Caprices, Op. 1, No. 6 in G Minor 'The Trill': Lento
DR14 -5.29 dB -23.61 dB 4:32 07-24 Caprices, Op. 1, No. 7 in A Minor: Posato
DR14 -6.10 dB -24.88 dB 3:15 08-24 Caprices, Op. 1, No. 8 in E-flat Major: Maestoso
DR15 -4.38 dB -24.43 dB 3:43 09-24 Caprices, Op. 1, No. 9 in E Major 'La chasse': Allegretto
DR13 -7.50 dB -24.75 dB 2:43 10-24 Caprices, Op. 1, No. 10 in G Minor: Vivace
DR14 -8.32 dB -26.72 dB 4:38 11-24 Caprices, Op. 1, No. 11 in C Major: Andante – Presto – Primo tempo
DR12 -10.38 dB -27.17 dB 2:44 12-24 Caprices, Op. 1, No. 12 in A-flat Major: Allegro
DR15 -6.14 dB -24.90 dB 2:34 13-24 Caprices, Op. 1, No. 13 in B-flat Major 'Devil's Laughter': Allegro
DR14 -8.66 dB -26.27 dB 1:39 14-24 Caprices, Op. 1, No. 14 in E-flat Major: Moderato
DR14 -5.46 dB -26.57 dB 3:21 15-24 Caprices, Op. 1, No. 15 in E Minor: Posato
DR14 -8.34 dB -25.72 dB 1:40 16-24 Caprices, Op. 1, No. 16 in G Minor: Presto
DR15 -7.93 dB -27.92 dB 3:56 17-24 Caprices, Op. 1, No. 17 in E-flat Major: Sostenuto – Andante
DR13 -10.70 dB -26.85 dB 3:05 18-24 Caprices, Op. 1, No. 18 in C Major: Corrente – Allegro
DR13 -6.60 dB -24.52 dB 3:33 19-24 Caprices, Op. 1, No. 19 in E-flat Major: Lento – Allegro Assai
DR14 -9.10 dB -27.69 dB 3:35 20-24 Caprices, Op. 1, No. 20 in D Major: Allegretto
DR15 -6.52 dB -25.11 dB 3:55 21-24 Caprices, Op. 1, No. 21 in A Major: Amoroso – Presto
DR12 -11.10 dB -27.37 dB 2:36 22-24 Caprices, Op. 1, No. 22 in F Major: Marcato
DR13 -5.11 dB -22.56 dB 4:39 23-24 Caprices, Op. 1, No. 23 in E-flat Major: Posato
DR15 -6.79 dB -27.46 dB 5:11 24-24 Caprices, Op. 1, No. 24 in A Minor: Tema quasi presto - Variazioni - Finale
––––––––––––––––––––––––––––––––––––––––

Number of tracks: 24
Official DR value: DR14

Samplerate: 88200 Hz
Channels: 2
Bits per sample: 24
Bitrate: 2635 kbps
Codec: FLAC
================================================================================


Thanks to the Original customer.