38 Special - Rock & Roll Strategy (1988/2018) [Official Digital Download 24/192]

Posted By: SERTiL
38 Special - Rock & Roll Strategy (1988/2018) [Official Digital Download 24/192]

38 Special - Rock & Roll Strategy (1988/2018)
FLAC (tracks) 24-bit/192 kHz | Time - 51:16 minutes | 2.01 GB
Studio Master, Official Digital Download | Artwork: Front Cover

Rock & Roll Strategy is the eighth studio album by the southern rock band 38 Special, released in 1988, and their final album for long-time label A&M Records. It was the first album to feature the new vocalist and keyboard player Max Carl.

Tracklist:
1. Rock & Roll Strategy 04:33
2. What's It To Ya? 04:29
3. Little Sheba 04:53
4. Comin Down Tonight 04:25
5. Midnight Magic 04:20
6. Second Chance 05:02
7. Hot Lanta 05:41
8. Never Be Lonely 04:39
9. Chattahoochee 04:09
10. Innocent Eyes 04:16
11. Love Strikes 04:31

Personnel:
Max Carl, keyboards, vocals
Jeff Carlisi, guitar, steel guitar
Danny Chauncey, guitar
Jack Grondin, drums
Larry Junstrom, bass
Additional musicians:
Robert White Johnson, percussion, background vocals
Edd Miller, percussion, vibraslap
The Noise Gator, horns
The Six Groomers, background vocals

Produced by Rodney Mills

Digitally remastered

foobar2000 1.3.7 / Dynamic Range Meter 1.1.1
log date: 2018-04-16 13:39:04

––––––––––––––––––––––––––––––––––––––––
Analyzed: 38 Special / Rock & Roll Strategy
––––––––––––––––––––––––––––––––––––––––

DR Peak RMS Duration Track
––––––––––––––––––––––––––––––––––––––––
DR13 -3.42 dB -18.56 dB 4:34 01-Rock & Roll Strategy
DR14 -3.39 dB -18.49 dB 4:31 02-What's It To Ya?
DR12 -3.07 dB -16.85 dB 4:54 03-Little Sheba
DR12 -3.60 dB -17.75 dB 4:26 04-Comin Down Tonight
DR12 -3.33 dB -16.86 dB 4:21 05-Midnight Magic
DR12 -5.24 dB -18.84 dB 5:05 06-Second Chance
DR14 -2.50 dB -18.39 dB 5:43 07-Hot Lanta
DR11 -3.98 dB -17.76 dB 4:40 08-Never Be Lonely
DR13 -3.89 dB -19.02 dB 4:11 09-Chattahoochee
DR13 -2.88 dB -18.53 dB 4:17 10-Innocent Eyes
DR13 -3.42 dB -18.62 dB 4:41 11-Love Strikes
––––––––––––––––––––––––––––––––––––––––

Number of tracks: 11
Official DR value: DR13

Samplerate: 192000 Hz
Channels: 2
Bits per sample: 24
Bitrate: 5581 kbps
Codec: FLAC
================================================================================


Thanks to the Original customer.