Subcategories

George Coleman, Mike Stern, Ron Carter & Jimmy Cobb - 4 Generations Of Miles (2002) [2.0 & 5.0] PS3 ISO + Hi-Res FLAC

Posted By: HDAtall
George Coleman, Mike Stern, Ron Carter & Jimmy Cobb - 4 Generations Of Miles (2002) [2.0 & 5.0] PS3 ISO + Hi-Res FLAC

George Coleman, Mike Stern, Ron Carter & Jimmy Cobb - 4 Generations Of Miles (2002)
PS3 Rip | SACD ISO | DST64 2.0 & 5.0 > 1-bit/2.8224 MHz | 67:04 minutes | Scans included | 3,91 GB
or FLAC 2.0 Stereo (official digital download) 24bit/96 kHz | Digital Booklet (PDF) | 1,45 GB

The night of May 12, 2002, may go down as another important milestone on the timeline of legendary jazz trumpeter Miles Davis. Four musicians, each representing a different Miles Davis band from his ever-evolving career, came together at the club Makor in New York City to do what everybody said couldn't be done—effectively fuse together elements of the radically different styles that Miles embodied over his 45 years of professional performance.

Four Generations of Miles is an unusual tribute to Miles Davis, featuring a quartet made up of alumni from four different editions of the trumpeter's bands, while omitting keyboards and trumpet entirely. Drummer Jimmy Cobb, tenor saxophonist George Coleman, bassist Ron Carter, and guitarist Mike Stern concentrate almost exclusively on the 1950s repertoire of Davis, excepting Ron Carter's somewhat abstract, R&B-flavored "81," which is from the mid-'60s. Stern's sparse accompaniment for Coleman in "All Blues" works surprising well in place of a piano, while the percolating take of "On Green Dolphin Street" will get a listener's feet patting. Coleman's soulful playing is the centerpiece of a lush treatment of "Blue in Green." Carter and Cobb provide a superb foundation for the soloists throughout this live recording. The creativity and musicianship throughout this excellent tribute make it stand head and shoulders above most such efforts.

Tracklist:

01. There Is No Greater Love
02. All Blues
03. On Green Dolphin Street
04. Blue In Green
05. 81
06. Freddie The Freeloader
07. My Funny Valentine
08. If I Were A Bell
09. Oleo

foobar2000 1.3.2 / Dynamic Range Meter 1.1.1

––––––––––––––––––––––––––––––––––––––––
Analyzed: Ron Carter, Jimmy Cobb, George Coleman & Mike Stern / 4 Generations Of Miles
––––––––––––––––––––––––––––––––––––––––

DR Peak RMS Duration Track
––––––––––––––––––––––––––––––––––––––––
DR12 -6.15 dB -26.62 dB 8:59 01-There Is No Greater Love
DR13 -6.15 dB -29.12 dB 7:06 02-All Blues
DR12 -6.16 dB -27.74 dB 7:20 03-On Green Dolphin Street
DR13 -8.90 dB -31.36 dB 7:29 04-Blue In Green
DR13 -6.15 dB -28.55 dB 6:30 05-81
DR13 -6.07 dB -28.49 dB 6:34 06-Freddie The Freeloader
DR14 -7.78 dB -31.06 dB 10:01 07-My Funny Valentine
DR12 -6.05 dB -25.83 dB 8:03 08-If I Were A Bell
DR12 -8.19 dB -28.07 dB 5:02 09-Oleo
––––––––––––––––––––––––––––––––––––––––

Number of tracks: 9
Official DR value: DR13

Samplerate: 2822400 Hz / PCM Samplerate: 88200 Hz
Channels: 5
Bits per sample: 24
Bitrate: 14112 kbps
Codec: DST64
================================================================================

––––––––––––––––––––––––––––––––––––––––
Analyzed: Ron Carter, Jimmy Cobb, George Coleman & Mike Stern / 4 Generations Of Miles
––––––––––––––––––––––––––––––––––––––––

DR Peak RMS Duration Track
––––––––––––––––––––––––––––––––––––––––
DR14 -6.15 dB -23.77 dB 8:59 01-There Is No Greater Love
DR15 -6.15 dB -26.21 dB 7:06 02-All Blues
DR14 -6.16 dB -24.90 dB 7:20 03-On Green Dolphin Street
DR14 -9.04 dB -28.35 dB 7:29 04-Blue In Green
DR15 -7.24 dB -25.63 dB 6:30 05-81
DR14 -6.07 dB -25.67 dB 6:34 06-Freddie The Freeloader
DR14 -9.68 dB -28.30 dB 10:01 07-My Funny Valentine
DR12 -6.05 dB -22.95 dB 8:03 08-If I Were A Bell
DR13 -8.19 dB -25.66 dB 5:02 09-Oleo
––––––––––––––––––––––––––––––––––––––––

Number of tracks: 9
Official DR value: DR14

Samplerate: 2822400 Hz / PCM Samplerate: 88200 Hz
Channels: 2
Bits per sample: 24
Bitrate: 5645 kbps
Codec: DST64


Thanks to audioguy_net!
Uncompressed SACD ISO size > 3,68 GB
>