Subcategories

Aretha Franklin - Yeah!!! In Person With Her Quartet (1965/2011) [TR24][OF]

Posted By: SERTiL
Aretha Franklin - Yeah!!! In Person With Her Quartet (1965/2011) [TR24][OF]

Aretha Franklin - Unforgettable: A Tribute To Dinah Washington
Vocal Jazz, Soul | FLAC (tracks) 24-bit/96 kHz | 74:43 min | 1.44 GB | Front Cover
Label: Columbia Records | Tracks: 25 | Rls.date: 1965/2011

Yeah!!! (or Aretha Franklin In Person With Her Quartet) is the eighth studio album by American singer Aretha Franklin, Released on May 17, 1965 by Columbia Records. Contrary to the overdubbed sounds of audience murmurs, the album was not a live album, but instead was recorded live at New York's Columbia Studios and produced by Clyde Otis. This would be Franklin's last collection of jazz recordings until the release of 1973's Hey Now Hey (The Other Side of the Sky), released during her landmark tenure at Atlantic Records. An expanded version of the album that also contains the original session tracks without audience overdubs has been released on CD in the Columbia Box Set Take A Look: Aretha Franklin Complete On Columbia.

TRACKLIST

01. This Could Be the Start of Something 01:30
02. Once in a Lifetime 03:21
03. Misty 03:38
04. More 01:50
05. There Is No Greater Love 04:40
06. Muddy Water 02:28
07. If I Had a Hammer 02:35
08. Impossible 03:22
09. Today I Love Ev'rybody 03:25
10. Without the One You Love 03:33
11. Trouble in Mind 02:54
12. Love for Sale 02:40

BONUS TRACKS
13. Bill Bailey, Won't You Please Come Home 02:15
Previously Unreleased:
14. Misty 03:36
15. Love for Sale 02:30
16. Once in a Lifetime 03:20
17. Today I Love Ev'rybody 03:24
18. Impossible 03:26
19. This Could Be the Start of Something 01:25
20. More 02:09
21. There Is No Greater Love 04:40
22. If I Had a Hammer 02:31
23. Muddy Water 02:29
24. Without the One You Love 03:41
25. Trouble in Mind 03:02

BAND
Aretha Franklin, vocals, piano
Kenny Burrell, guitar
Hindel Butts, drums
James Richardson, bass
Teddy Harris, piano

foobar2000 1.3.7 / Замер динамического диапазона (DR) 1.1.1
Дата отчёта: 2016-12-30 18:53:14

––––––––––––––––––––––––––––––––––––––––
Анализ: Aretha Franklin / Yeah!!! Aretha Franklin In Person With Her Quartet
––––––––––––––––––––––––––––––––––––––––

DR Пики RMS Продолжительность трека
––––––––––––––––––––––––––––––––––––––––
DR10 -1.68 дБ -14.36 дБ 1:29 01-This Could Be the Start of Something
DR11 -1.62 дБ -18.39 дБ 3:22 02-Once in a Lifetime
DR10 -2.27 дБ -17.05 дБ 3:37 03-Misty
DR11 -1.41 дБ -15.17 дБ 1:50 04-More
DR10 -3.09 дБ -17.10 дБ 4:40 05-There Is No Greater Love
DR10 -1.19 дБ -13.92 дБ 2:31 06-Muddy Water
DR11 -0.78 дБ -14.21 дБ 2:34 07-If I Had a Hammer
DR11 -0.98 дБ -17.43 дБ 3:22 08-Impossible
DR10 -0.44 дБ -14.38 дБ 3:25 09-Today I Love Ev'rybody
DR12 -0.27 дБ -16.72 дБ 3:33 10-Without the One You Love
DR11 -0.45 дБ -14.14 дБ 2:53 11-Trouble in Mind
DR11 -0.70 дБ -15.13 дБ 2:42 12-Love for Sale
DR11 0.00 дБ -13.36 дБ 2:17 13-Bill Bailey, Won't You Please Come Home
DR12 -0.09 дБ -16.25 дБ 3:39 14-Misty (previously unreleased)
DR11 -0.09 дБ -13.94 дБ 2:32 15-Love for Sale (previously unreleased)
DR12 -0.31 дБ -17.15 дБ 3:22 16-Once in a Lifetime (previously unreleased)
DR13 -0.09 дБ -16.36 дБ 3:27 17-Today I Love Ev'rybody (previously unreleased)
DR12 -1.43 дБ -19.16 дБ 3:28 18-Impossible (previously unreleased)
DR11 -0.13 дБ -13.31 дБ 1:27 19-This Could Be the Start of Something (previously unreleased)
DR11 -0.09 дБ -13.38 дБ 2:12 20-More (previously unreleased)
DR13 -0.10 дБ -16.52 дБ 4:42 21-There Is No Greater Love (previously unreleased)
DR12 -0.09 дБ -13.20 дБ 2:32 22-If I Had a Hammer (previously unreleased)
DR11 -0.23 дБ -13.58 дБ 2:31 23-Muddy Water (previously unreleased)
DR13 -0.01 дБ -18.19 дБ 3:43 24-Without the One You Love (previously unreleased)
DR12 -0.09 дБ -14.06 дБ 3:01 25-Trouble in Mind (previously unreleased)
––––––––––––––––––––––––––––––––––––––––

Количество треков: 25
Реальные значения DR: DR11

Частота: 96000 Гц
Каналов: 2
Разрядность: 24
Битрейт: 2849 кбит/с
Кодек: FLAC
================================================================================


Thanks to the Original customer.
My Blog mp3, flac & HDtracks