Maria Marchant - Bantock Rediscovered (2018) [Official Digital Download]

Posted By: SERTiL
Maria Marchant - Bantock Rediscovered (2018) [Official Digital Download]

Maria Marchant - Bantock Rediscovered (2018)
FLAC (tracks) 24-bit/44.1 kHz | Time - 73:30 minutes | 544 MB
Studio Master, Official Digital Download | Artwork: Digital Booklet

Somm Recordings is proud to announce a landmark recording for lovers of British music featuring 23 first recordings of piano pieces by Sir Granville Bantock, one of the most influential British composers of his age. Performed by Maria Marchant, 'Bantock Rediscovered' is being issued to celebrate the 150th anniversary of Bantock's birth in 1868. Composed between 1894 and 1938, these immensely varied, beautifully crafted works – never before heard on disc – illustrate fascinating aspects of Bantock's artistry and music. The carefully chosen, exquisitely played programme reveals the breadth, delicacy and deliberateness of what Robert Matthew-Walker describes in his booklet notes as Bantock’s 'always clever structuring and drily eloquent style'. Among the gems to be discovered here are Memories of Sapphire, three beautiful lyrical tone poems recalling a visit to North Carolina and dedicated to the composer's mother; the richly impressionistic Barcarolle showing Bantock's piano writing at its finest; the late, lively Parade March and the striking piano transcription of the symphonic overture Saul, with its early hints of the orientalism that would later prove so significant to Bantock's music. Demonstrating Bantock's deft ability to borrow from traditional music, the Two Scottish Pieces offer up a vivacious quickstep and reel.

Tracklist:
1. Chanson de Mai (02:17)
2. Memories of Sapphire: I. Largamente espressivo (03:59)
3. Memories of Sapphire: II. Lento cantabile (03:18)
4. Memories of Sapphire: III. Allegretto delicato (01:15)
5. Cloisters at Midnight (04:39)
6. Barcarolle (03:49)
7. Reverie (02:08)
8. Parade March (02:51)
9. 2 Scottish Pieces: No. 1, The Hills of Glenorchy (Quickstep) (03:41)
10. 2 Scottish Pieces: No. 2, The Bobers of Brechin (Reel) (03:48)
11. Saul (12:24)
12. 12 Piano Pieces: No. 1, Rhapsode (02:41)
13. 12 Piano Pieces: No. 2, Meditation (04:12)
14. 12 Piano Pieces: No. 3, Phantasy (01:43)
15. 12 Piano Pieces: No. 4, Scherzo (01:47)
16. 12 Piano Pieces: No. 5, Nocturne (02:51)
17. 12 Piano Pieces: No. 6, Legend (01:08)
18. 12 Piano Pieces: No. 7, Preghiera (02:19)
19. 12 Piano Pieces: No. 8, Mazurka (03:02)
20. 12 Piano Pieces: No. 9, Intermezzo (02:12)
21. 12 Piano Pieces: No. 10, Serenade (02:13)
22. 12 Piano Pieces: No. 11, Caprice (02:01)
23. 12 Piano Pieces: No. 12, Romance (03:12)

Personnel:
Maria Marchant (piano)

foobar2000 1.3.7 / Dynamic Range Meter 1.1.1
log date: 2018-06-14 09:43:48

––––––––––––––––––––––––––––––––––––––––
Analyzed: Maria Marchant / Bantock Rediscovered
––––––––––––––––––––––––––––––––––––––––

DR Peak RMS Duration Track
––––––––––––––––––––––––––––––––––––––––
DR14 -5.25 dB -24.49 dB 2:18 01-Chanson de Mai
DR13 -3.74 dB -23.39 dB 4:00 02-Memories of Sapphire: I. Largamente espressivo
DR13 -6.16 dB -24.65 dB 3:18 03-Memories of Sapphire: II. Lento cantabile
DR12 -7.16 dB -24.49 dB 1:16 04-Memories of Sapphire: III. Allegretto delicato
DR14 -3.92 dB -25.33 dB 4:39 05-Cloisters at Midnight
DR12 -6.94 dB -23.94 dB 3:49 06-Barcarolle
DR13 -5.74 dB -24.87 dB 2:08 07-Reverie
DR13 -2.31 dB -20.44 dB 2:51 08-Parade March
DR13 -3.59 dB -22.51 dB 3:42 09-2 Scottish Pieces: No. 1, The Hills of Glenorchy (Quickstep)
DR13 -2.96 dB -22.11 dB 3:49 10-2 Scottish Pieces: No. 2, The Bobers of Brechin (Reel)
DR14 -0.51 dB -21.09 dB 12:25 11-Saul
DR12 -4.55 dB -20.53 dB 2:42 12-12 Piano Pieces: No. 1, Rhapsode
DR14 -2.92 dB -24.04 dB 4:13 13-12 Piano Pieces: No. 2, Meditation
DR12 -0.80 dB -18.82 dB 1:44 14-12 Piano Pieces: No. 3, Phantasy
DR13 -8.31 dB -26.06 dB 1:48 15-12 Piano Pieces: No. 4, Scherzo
DR14 -5.33 dB -25.33 dB 2:52 16-12 Piano Pieces: No. 5, Nocturne
DR11 -3.76 dB -19.53 dB 1:09 17-12 Piano Pieces: No. 6, Legend
DR13 -3.47 dB -22.03 dB 2:20 18-12 Piano Pieces: No. 7, Preghiera
DR13 -5.66 dB -23.25 dB 3:03 19-12 Piano Pieces: No. 8, Mazurka
DR13 -6.82 dB -25.87 dB 2:13 20-12 Piano Pieces: No. 9, Intermezzo
DR14 -7.20 dB -26.24 dB 2:14 21-12 Piano Pieces: No. 10, Serenade
DR11 -9.69 dB -25.94 dB 2:01 22-12 Piano Pieces: No. 11, Caprice
DR12 -6.89 dB -23.49 dB 3:12 23-12 Piano Pieces: No. 12, Romance
––––––––––––––––––––––––––––––––––––––––

Number of tracks: 23
Official DR value: DR13

Samplerate: 44100 Hz
Channels: 2
Bits per sample: 24
Bitrate: 1020 kbps
Codec: FLAC
================================================================================


Thanks to the Original customer.