Emanuele Torquati & Francesco Dillon - Brahms: Cello Transcriptions (2018) [Official Digital Download 24/96]

Posted By: SERTiL
Emanuele Torquati & Francesco Dillon - Brahms: Cello Transcriptions (2018) [Official Digital Download 24/96]

Emanuele Torquati & Francesco Dillon - Brahms: Cello Transcriptions (2018)
FLAC (tracks) 24-bit/96 kHz | Time - 66:25 minutes | 1.04 GB
Studio Master, Official Digital Download | Artwork: Digital Booklet

Arrangements of the First Violin Sonata and groups of songs and Hungarian dances, made by Brahms’s contemporaries for an idiom close to the composer’s heart, in new recordings by an experienced partnership.

Brahms, like most composers, had no scruple about arranging his own music for other forces, whether to disseminate it further or earn useful income or both. Sometimes he undertook the transcription of his orchestral works for the popular domestic market of piano duet; on other occasions he left the work to trusted friends and colleagues.

Although the composer did not apparently have any other instrument in mind when he wrote the First Violin Sonata, the piece sitspeculiarly well on the cello once transposed to the key of D major by the cellist Paul Klengel; its pervasive mood of profound melancholy is even enhanced by the cello’s voice. Clara Schumann recognised the sonata as one of Brahms’s most tender yet regretful tributes to her, and wished that it should be played at her funeral, to which purpose Klengel’s transcription is eminently suited.

Norbert Salter (1868-1935) was a cellist who played under Mahler in both Budapest and Hamburg; this is his only published transcription, a set of six Lieder by Brahms which may well have been made under the elderly composer’s supervision. Like the Brahms/Klengel Sonata, this is a sensitive yet now little-known piece of work which deserves modern appreciation.

Francesco Dillon and Emanuele Torquati conclude their fourth album for Brilliant Classics in a lighter vein, with nine of the ever-popular Hungarian Dances, arranged to stylish effect by the Italian virtuoso Alfredo Piatti who did so much to advance the cause of the cello as a solo instrument in the 19th century. The Italian duo’s pair of Schumann albums (BC94060 and BC94328) were warmly welcomed in the critical press: reviewing the second volume, Il corriere musicale noted the ‘persuasive, vibrant tone of Francesco Dillon and refined pianism from Emanuele Torquati.’

Johannes Brahms was a keen transcriber, he wrote numerous arrangements of his own works and those of others. Moreover he was happy when others transcribed his works for other instruments, that is when it was done by musicians he trusted. He considered it a form of theft for love, a manifestation for respect for tradition and a sign of friendship.

The transcriptions on this new recording were fully approved by Brahms, and they even found their place in the Brahms Thematic Catalogue made up by his publisher Simrock. The transcribers are Alfredo Piatti (Hungarian Dances), Paul Klengel (violin sonata No. 1) and Norbert Salter (songs). It is fascinating how essentially Brahmsian these transcriptions for cello and piano sound, the deep and slightly melancholy sonority of the cello fits Brahms music extremely well.

Cellist Francesco Dillon and pianist Emanuele Torquati already recorded similar albums for Brilliant Classics, notably of works by Robert Schumann, and they do so with complete commitment and love for the music.

Tracklist:
1. Violin Sonata in D Major, Op. 78: I. Vivace ma non troppo 11:12
2. Violin Sonata in D Major, Op. 78: II. Adagio 07:15
3. Violin Sonata in D Major, Op. 78: III. Allegro molto moderato 09:19
4. Feldeinsamkeit, Op. 85 02:36
5. Wie Melodien, Op. 105 02:09
6. Sapphische Ode, Op. 94 01:54
7. Wiegenlied, Op. 49 01:56
8. Liebestreu, Op. 3 02:11
9. Minnelied, Op. 71 02:31
10. 21 Hungarian Dances, Op. 21: II. Allegro non assai 03:41
11. 21 Hungarian Dances, Op. 21: IV. Poco sostenuto 04:58
12. 21 Hungarian Dances, Op. 21: V. Allegro 02:58
13. 21 Hungarian Dances, Op. 21: IX. Allegro non troppo 02:12
14. 21 Hungarian Dances, Op. 21: XIII. Andantino grazioso 01:41
15. 21 Hungarian Dances, Op. 21: XIV. Un poco andante 02:12
16. 21 Hungarian Dances, Op. 21: XVI. Con moto 02:45
17. 21 Hungarian Dances, Op. 21: XIX. Allegretto 02:00
18. 21 Hungarian Dances, Op. 21: XX. Poco allegretto 02:55

Personnel:
Francesco Dillon, cello
Emanuele Torquati, piano

foobar2000 1.3.7 / Dynamic Range Meter 1.1.1
log date: 2018-07-11 20:20:21

––––––––––––––––––––––––––––––––––––––––
Analyzed: Francesco Dillon & Emanuele Torquati / Brahms: Cello Transcriptions
––––––––––––––––––––––––––––––––––––––––

DR Peak RMS Duration Track
––––––––––––––––––––––––––––––––––––––––
DR12 -1.22 dB -19.02 dB 11:13 01-Violin Sonata in D Major, Op. 78: I. Vivace ma non troppo
DR13 -1.90 dB -20.58 dB 7:16 02-Violin Sonata in D Major, Op. 78: II. Adagio
DR13 -2.38 dB -20.75 dB 9:19 03-Violin Sonata in D Major, Op. 78: III. Allegro molto moderato
DR11 -5.84 dB -21.48 dB 2:37 04-Feldeinsamkeit, Op. 85
DR12 -6.19 dB -21.89 dB 2:10 05-Wie Melodien, Op. 105
DR11 -7.63 dB -22.94 dB 1:54 06-Sapphische Ode, Op. 94
DR11 -9.50 dB -26.16 dB 1:57 07-Wiegenlied, Op. 49
DR11 -3.38 dB -18.88 dB 2:12 08-Liebestreu, Op. 3
DR11 -5.42 dB -20.92 dB 2:32 09-Minnelied, Op. 71
DR12 -2.68 dB -18.38 dB 3:42 10-Hungarian Dances, Op. 21: II. Allegro non assai
DR13 -1.71 dB -18.93 dB 4:58 11-Hungarian Dances, Op. 21: IV. Poco sostenuto
DR13 -1.55 dB -18.27 dB 2:58 12-Hungarian Dances, Op. 21: V. Allegro
DR12 -3.41 dB -18.98 dB 2:12 13-Hungarian Dances, Op. 21: IX. Allegro non troppo
DR14 -2.37 dB -21.87 dB 1:41 14-Hungarian Dances, Op. 21: XIII. Andantino grazioso
DR12 -5.30 dB -19.49 dB 2:12 15-Hungarian Dances, Op. 21: XIV. Un poco andante
DR13 -2.82 dB -19.89 dB 2:45 16-Hungarian Dances, Op. 21: XVI. Con moto
DR12 -1.99 dB -19.77 dB 2:01 17-Hungarian Dances, Op. 21: XIX. Allegretto
DR14 -1.62 dB -20.43 dB 2:55 18-Hungarian Dances, Op. 21: XX. Poco allegretto
––––––––––––––––––––––––––––––––––––––––

Number of tracks: 18
Official DR value: DR12

Samplerate: 96000 Hz
Channels: 2
Bits per sample: 24
Bitrate: 2250 kbps
Codec: FLAC
================================================================================


Thanks to the Original customer.