Branford Marsalis Quartet - Upward Spiral (2016) [Official Digital Download 24bit/88.2kHz]

Posted By: tiburon
Branford Marsalis Quartet - Upward Spiral (2016) [Official Digital Download 24bit/88.2kHz]

Branford Marsalis Quartet - Upward Spiral (2016)
FLAC tracks 24bit/88.2kHz | Digital Booklet | 1.31GB + 5% Recovery
Studio Master, Official Digital Download, OKeh

Legendary jazz greats Branford Marsalis and Kurt Elling collaborate for the first time on a full album, Upward Spiral. They ve been talking for a while about making a record together, and finally at the end of 2015 it all came together. They found time to play the new material in the New Orleans Snug Harbor club for four days and then recorded a variety of songs in the studio, all chosen because of their melodic richness and musical quality. Their versions of the chosen material are simply incredible, as the musicality of Branford and Kurt and their deep understanding of these songs shows through immediately.
Track List
01. There's A Boat Dat's Leavin' Soon New York 5:25
02. Blue Gardenia 4:39
03. From One Island To Another 6:04
04. Practical Arrangement 9:49
05. Doxy 3:56
06. I'm A Fool To Want You 3:04
07. West Virginia Rose 2:32
08. So Tinha De Ser Com Voce 3:41
09. Momma Said 2:46
10. Cassandra Song 8:30
11. Blue Velvet 3:47
12. The Return (Upward Spiral) 7:19

musicians
Branford Marsalis - saxophones
Joey Calderazzo - piano
Eric Revis - bass
Justin Faulkner - drums
Kurt Elling - vocals

Produced by Branford Marsalis


––––––––––––––––––––––––––––––––––––––––
Analyzed: Branford Marsalis Quartet & Kurt Elling / Upward Spiral
––––––––––––––––––––––––––––––––––––––––

DR Peak RMS Duration Track
––––––––––––––––––––––––––––––––––––––––
DR9 -0.34 dB -12.33 dB 5:25 01-There's a Boat Dat's Leavin' Soon for New York
DR10 -0.40 dB -14.80 dB 4:39 02-Blue Gardenia
DR8 -0.29 dB -11.40 dB 6:05 03-From One Island to Another
DR11 -0.40 dB -16.23 dB 9:49 04-Practical Arrangement
DR8 -0.25 dB -10.92 dB 3:57 05-Doxy
DR11 -1.15 dB -16.37 dB 3:05 06-I'm a Fool to Want You
DR11 -0.60 dB -13.77 dB 2:32 07-West Virginia Rose
DR10 -0.22 dB -14.64 dB 2:46 09-Momma Said
DR9 -0.38 dB -15.02 dB 8:31 10-Cassandra Song
DR11 -0.40 dB -15.12 dB 3:47 11-Blue Velvet
DR9 -0.34 dB -12.54 dB 7:20 12-The Return (Upward Spiral)
DR8 -0.29 dB -10.85 dB 8:45 13-Long as You're Living (Bonus Track)
––––––––––––––––––––––––––––––––––––––––

Number of tracks: 12
Official DR value: DR10

Samplerate: 88200 Hz
Channels: 2
Bits per sample: 24
Bitrate: 2865 kbps
Codec: FLAC
================================================================================


Thanks to the original customer