David Bowie - Changesonebowie (1976/2016/2018) [Official Digital Download 24/192]

Posted By: SERTiL
David Bowie - Changesonebowie (1976/2016/2018) [Official Digital Download 24/192]

David Bowie - Changesonebowie (1976/2016/2018)
FLAC (tracks) 24-bit/192 kHz | Time - 46:40 minutes | 1.76 GB
Studio Master, Official Digital Download | Artwork: Front Cover

Released in May 1976, Changesonebowie begins where Bowie the artist begins in the collective imagination: not with his 1964 debut single "Liza Jane," but with his 1969 hit "Space Oddity." Even in 1976, it was already a bona fide classic, but it was the odd man out when it originally appeared on the singer's second (and second self-titled) album. David Bowie was a hippie, acoustic singer-songwriter album featuring song titles like "Memory of a Free Festival" and "Unwashed and Slightly Dazed." Especially in the post-Ziggy Stardust "Starman" era, casual fans didn't have much use for the flaxen-haired pseudo-Bob Dylan vibe of David Bowie. It was perceived as your standard "buy it for the hit" fare, so finally being able to pick up "Space Oddity" on a compilation was a treat. Today the inclusion of an unreleased track or two is mandatory for greatest hits packages, but that wasn't always the case. For U.S. fans, Changesonebowie was their first chance to own "John, I'm Only Dancing" as anything other than an import. The track hadn't appeared on an album previously, having only been released as a U.K. single back in '72. (RCA refused to release the track upon its initial release due to its possibly homoerotic lyrics.) While the Beatles' Hey Jude (which features tracks that hadn't been compiled on studio albums), beat Changesone to the market by a good six years, this was still an unusual move for an artist of Bowie's stature in 1976.

"David Bowie's first official compilation album, released in the wake of Station to Station and sharing that album's odd typography, Changesonebowie is a handy one-stop roundup of the last four years of hits, plus "Space Oddity" – an American smash in 1973, but unavailable on a U.K. single since its first appearance in 1969. It soared to the top of the British chart, dragging Changesone with it – the album eventually peaked at number two. The album's main charm for confirmed fans was the inclusion of "John, I'm Only Dancing." Never previously included on LP, the song was also making its American debut here, with the excitement soaring even higher when it was discovered that the "wrong" version had been included – the regular 1972 U.K. single version was omitted in inadvertent favor of a 1973 re-recording. The error was corrected for subsequent pressings of the album. An unadventurous-looking track listing should not deter the keen fan. As with so many pre-CD age Bowie compilations, it's very easy to overlook Changesonebowie in favor of the more-bang-for-your-buck career-spanning collections that have since emerged. It remains, however, a charming time capsule, a reminder of the days when Bowie was as much a chart-topping pop star as an iconic idol." (Dave Thompson, AMG)

Tracklist:
1. Space Oddity (2015 Remastered Version) 05:16
2. John, I'm Only Dancing (Original Mix) 02:46
3. Changes (2015 Remastered Version) 03:37
4. Ziggy Stardust (2012 Remastered Version) 03:13
5. Suffragette City (2012 Remastered Version) 03:26
6. The Jean Genie (2013 Remastered Version) 04:07
7. Diamond Dogs (2016 Remastered Version) 06:04
8. Rebel Rebel (2016 Remastered Version) 04:34
9. Young Americans (2016 Remastered Version) 05:13
10. Fame (2016 Remastered Version) 04:21
11. Golden Years (2016 Remastered Version) 04:03

foobar2000 1.3.7 / Dynamic Range Meter 1.1.1
log date: 2018-04-16 10:49:59

––––––––––––––––––––––––––––––––––––––––
Analyzed: David Bowie / Changesonebowie
––––––––––––––––––––––––––––––––––––––––

DR Peak RMS Duration Track
––––––––––––––––––––––––––––––––––––––––
DR10 0.00 dB -12.74 dB 5:17 01-Space Oddity (2015 Remastered Version) 2015 Remastered Version
DR12 -0.24 dB -14.14 dB 2:47 02-John, I'm Only Dancing (Original Mix) Original Mix
DR12 -4.02 dB -19.47 dB 3:37 03-Changes (2015 Remastered Version) 2015 Remastered Version
DR11 -0.71 dB -13.45 dB 3:14 04-Ziggy Stardust (2012 Remastered Version) 2012 Remastered Version
DR9 -0.54 dB -10.79 dB 3:26 05-Suffragette City (2012 Remastered Version) 2012 Remastered Version
DR9 -0.20 dB -10.61 dB 4:07 06-The Jean Genie (2013 Remastered Version) 2013 Remastered Version
DR13 -1.23 dB -16.50 dB 6:04 07-Diamond Dogs (2016 Remastered Version) 2016 Remastered Version
DR13 -0.99 dB -16.01 dB 4:35 08-Rebel Rebel (2016 Remastered Version) 2016 Remastered Version
DR10 -0.02 dB -11.63 dB 5:14 09-Young Americans (2016 Remastered Version) 2016 Remastered Version
DR12 -0.02 dB -13.66 dB 4:21 10-Fame (2016 Remastered Version) 2016 Remastered Version
DR11 -1.22 dB -13.72 dB 4:03 11-Golden Years (2016 Remastered Version) 2016 Remastered Version
––––––––––––––––––––––––––––––––––––––––

Number of tracks: 11
Official DR value: DR11

Samplerate: 192000 Hz
Channels: 2
Bits per sample: 24
Bitrate: 5430 kbps
Codec: FLAC
================================================================================


Thanks to the Original customer.