David Bowie - Changestwobowie (1981/2018) [Official Digital Download 24/192]

Posted By: SERTiL
David Bowie - Changestwobowie (1981/2018) [Official Digital Download 24/192]

David Bowie - Changestwobowie (1981/2018)
FLAC (tracks) 24-bit/192 kHz | Time - 42:38 minutes | 1.63 GB
Studio Master, Official Digital Download | Artwork: Front Cover

Changestwobowie is a David Bowie compilation album issued in 1981 by RCA Records. Its title and packaging followed the format of RCA's earlier Bowie compilation, Changesonebowie released in 1976. As well as post-1976 singles, the album collected songs from earlier in Bowie's career that had not appeared on Changesone. However it did not repeat the chart success of the earlier compilation, reaching No. 24 on the UK Album Chart and No. 68 in the United States. The album was briefly available on CD from 1985 but was soon deleted, along with most of his other RCA albums, owing to a conflict between Bowie and the label. The album was not reissued when Rykodisc obtained the rights to re-release the Bowie catalog in 1990, opting to merge the two compilations into one instead.

This year marks the 45th Anniversary of David Bowie’s sixth studio album, Aladdin Sane. To celebrate the occasion, Parlophone has announced a single run, limited edition silver vinyl reissue. It will arrive 45 years to the day of its newly discovered official release date of April 20th. The LP will only be available for purchase in brick and mortar retail stores. In addition, Parlophone has revealed a remastered version of Bowie’s best of compilation, Changestwobowie, arriving on April 13th. Drawing on material spanning from 1971’s Hunky Dory through 1980’s Scary Monsters (And Super Creeps), the reissue will be sold on high-resolution 192/24 and 96/24 digital CD, as well as standard digital for streaming and download. In addition, there will be a randomly available 180-gram vinyl edition on its initial limited run of black and blue vinyl before reverting solely to black vinyl.

Tracklist:
01. Aladdin Sane (2013 Remastered Version) 05:10
02. Oh! You Pretty Things (2015 Remastered Version) 03:14
03. Starman (2012 Remastered Version) 04:14
04. 1984 (2016 Remastered Version) 03:28
05. Ashes to Ashes (Single Version) (2017 Remastered Version) 03:37
06. Sound and Vision (2017 Remastered Version) 03:03
07. Fashion (Single Version) (2017 Remastered Version) 03:25
08. Wild Is The Wind (2016 Remastered Version) 06:03
09. John, I'm Only Dancing (Again) (2016 Remastered Version) 06:59
10. D.J. (Single Version) (2017 Remastered Version) 03:25

foobar2000 1.3.7 / Dynamic Range Meter 1.1.1
log date: 2018-04-16 10:55:58

––––––––––––––––––––––––––––––––––––––––
Analyzed: David Bowie / Changestwobowie
––––––––––––––––––––––––––––––––––––––––

DR Peak RMS Duration Track
––––––––––––––––––––––––––––––––––––––––
DR9 -0.20 dB -11.51 dB 5:09 01-Aladdin Sane (2013 Remastered Version) 2013 Remastered Version
DR11 -4.02 dB -19.75 dB 3:12 02-Oh! You Pretty Things (2015 Remastered Version) 2015 Remastered Version
DR9 -0.72 dB -11.87 dB 4:14 03-Starman (2012 Remastered Version) 2012 Remastered Version
DR11 -1.12 dB -15.04 dB 3:27 04-1984 (2016 Remastered Version) 2016 Remastered Version
DR9 -0.30 dB -10.99 dB 3:37 05-Ashes to Ashes (Single Version) [2017 Remastered Version] Single Version, 2017 Remastered Version
DR8 -0.30 dB -10.76 dB 3:04 06-Sound and Vision (2017 Remastered Version) 2017 Remastered Version
DR9 -0.30 dB -11.12 dB 3:26 07-Fashion (Single Version) [2017 Remastered Version] Single Version, 2017 Remastered Version
DR11 -1.22 dB -14.90 dB 6:06 08-Wild Is The Wind (2016 Remastered Version) 2016 Remastered Version
DR11 -1.02 dB -13.90 dB 7:02 09-John, I'm Only Dancing (Again) [2016 Remastered Version] 2016 Remastered Version
DR8 -0.60 dB -9.64 dB 3:26 10-D.J. (Single Version) [2017 Remastered Version] Single Version, 2017 Remastered Version
––––––––––––––––––––––––––––––––––––––––

Number of tracks: 10
Official DR value: DR10

Samplerate: 192000 Hz
Channels: 2
Bits per sample: 24
Bitrate: 5830 kbps
Codec: FLAC
================================================================================


Thanks to the Original customer.