Ensemble Vocal Luna & Maribel Nodarse Valdés - Coro del Mundo (2018) [Official Digital Download 24/96]

Posted By: SERTiL
Ensemble Vocal Luna & Maribel Nodarse Valdés - Coro del Mundo (2018) [Official Digital Download 24/96]

Ensemble Vocal Luna & Maribel Nodarse Valdés - Coro del Mundo (2018)
FLAC (tracks) 24-bit/96 kHz | Time - 65:57 minutes | 1.00 GB
Studio Master, Official Digital Download | Artwork: Front Cover

Continuing in the series of Cuban recorded Ansonica Records projects comes Coro Del Mundo – choir of the world. With tracks ranging from sacred to secular, and from delicate to aggressive, the surprising cohesiveness of the composers’ work is astonishingly beautiful and impassioned. Schola Cantorum Coralina and Vocal Luna contribute exquisite vocals to the proceedings. L Peter Deutsch’s Dance to the Revolution, takes inspiration from the writing of Emma Goldman. The composer explains, “what drew me to her writing was her inclusion of interpersonal relationships, not only political or economic ones, in the vision of ideal society.” Deutch’s Where Everything is Music transports the listener to Havana. Conrado Monier’s Gozando’s En La Habana received mention in the Choral Music Contest sponsored by the Cuban Agency of Musical Copyright and the Cuban Music Institute. Monier’s second composition on Coro Del Mundo, Gozando En La Habana, is an a capella tour de force effortlessly conjuring up the sights and sounds of the City of Columns. Cuban composer and conductor Guido López-Gavilán’s Qué Rico É! is a shimmering choral mambo that leaves the listener breathless. Vocal Luna’s contribution to Coro Del Mundo is profound. On Cemento Ladrillo Y Arena, Murmullo, and Silencio their voices range from brassy brilliance to delicate, angelic whispers. Nowhere is this more apparent than their performance of Cynthia Folio’s four-part piece At the Edge of Great Quiet. J.A. Kawarsky’s Sacred Rights, Sacred Song also shines with Vocal Luna’s participation. Sacred Rights, Sacred Song, a multi-movement piece, envisions Israel as a healthy Jewish democracy in which the spiritual civil rights of all Jews are protected. Michael Murray’s El Lunar, based on a poem by Juan Clemente Zenea, depicts the adoration of a beautiful woman. Caminando, based Nicolás Guillén’s poem focuses on the extreme poverty and scarcity faced by many Cubans in the 1930’s. The extraordinary desperation and bleakness Guillén depicts is emphasized by the implication of cannibalism toward the end of the piece. Both of Murray’s pieces are lush with solemn, hypnotic tone. Meira Warshauer’s We Are Dreamers is an adaptation of the Jewish psalm Shir Hamalot. With its blend of religious and cultural influences, Coro Del Mundo is proof that different faiths and beliefs can sit together comfortably at the same musical table.

Tracklist:
1. Dance to the Revolution 03:23
2. Where Everything Is Music 04:32
3. Canto del Bongó 03:08
4. Gozando en la Habana 03:05
5. Qué Rico É! 04:48
6. Cemento Ladrillo y Arena 04:03
7. Murmullo 02:49
8. Silencio 03:24
9. At the Edge of Great Quiet: I. Roads 01:27
10. At the Edge of Great Quiet: II. There Were Suddenly Two Stones 01:45
11. At the Edge of Great Quiet: III. On a Day of White Trees 03:14
12. At the Edge of Great Quiet: IV. Out of Wind, Out of Sun 01:18
13. Sacred Rights, Sacred Song: I. Mujer Rezando en la Pared 03:07
14. Sacred Rights, Sacred Song: II. Nuestra Oración Sagrada 03:55
15. Sacred Rights, Sacred Song: III. Nuestra Sagrada Canción 03:53
16. Joanne de la Torre Corpas, Schola Cantorum Coralina & Alina Orraca – Caminando 03:55
17. El Lunar 04:32
18. We Are Dreamers 09:39

Personnel:
Vocal Luna
Maribel Nodarse Valdes, vocals

foobar2000 1.3.7 / Dynamic Range Meter 1.1.1
log date: 2018-06-06 23:28:30

––––––––––––––––––––––––––––––––––––––––
Analyzed: Ensemble Vocal Luna & Maribel Nodarse Valdés / Coro del Mundo
––––––––––––––––––––––––––––––––––––––––

DR Peak RMS Duration Track
––––––––––––––––––––––––––––––––––––––––
DR14 -0.50 dB -19.30 dB 3:23 01-Dance to the Revolution
DR13 -0.50 dB -17.81 dB 4:32 02-Where Everything Is Music
DR15 -2.50 dB -22.54 dB 3:09 03-Canto del Bongó
DR12 -6.50 dB -21.58 dB 3:06 04-Gozando en la Habana
DR14 -0.50 dB -20.93 dB 4:49 05-Qué Rico É!
DR14 -4.50 dB -21.83 dB 4:03 06-Cemento Ladrillo y Arena
DR14 -5.50 dB -23.40 dB 2:49 07-Murmullo
DR12 -8.47 dB -25.49 dB 3:24 08-Silencio
DR11 -1.85 dB -25.17 dB 1:27 09-At the Edge of Great Quiet: I. Roads
DR15 -0.52 dB -21.36 dB 1:45 10-At the Edge of Great Quiet: II. There Were Suddenly Two Stones
DR15 -5.80 dB -28.80 dB 3:14 11-At the Edge of Great Quiet: III. On a Day of White Trees
DR12 -0.51 dB -19.76 dB 1:19 12-At the Edge of Great Quiet: IV. Out of Wind, Out of Sun
DR14 -3.43 dB -24.63 dB 3:07 13-Sacred Rights, Sacred Song: I. Mujer Rezando en la Pared
DR15 -1.82 dB -23.13 dB 3:55 14-Sacred Rights, Sacred Song: II. Nuestra Oración Sagrada
DR13 -0.50 dB -19.95 dB 3:53 15-Sacred Rights, Sacred Song: III. Nuestra Sagrada Canción
DR11 -0.42 dB -17.07 dB 3:55 16-Caminando
DR12 -0.54 dB -17.92 dB 4:33 17-El Lunar
DR16 -0.83 dB -22.38 dB 9:39 18-We Are Dreamers
––––––––––––––––––––––––––––––––––––––––

Number of tracks: 18
Official DR value: DR14

Samplerate: 96000 Hz
Channels: 2
Bits per sample: 24
Bitrate: 1973 kbps
Codec: FLAC
================================================================================


Thanks to the Original customer.