Les Folies Françoises, Patrick Cöhen-Akenine & Beatrice Martin - Couperin: Portraits Croisés (2018) [24/96]

Posted By: SERTiL
Les Folies Françoises, Patrick Cöhen-Akenine & Beatrice Martin - Couperin: Portraits Croisés (2018) [24/96]

Les Folies Françoises, Patrick Cöhen-Akenine & Beatrice Martin - Couperin: Portraits Croisés (2018)
FLAC (tracks) 24-bit/96 kHz | Time - 70:13 minutes | 1.48 GB
Studio Master, Official Digital Download | Artwork: Digital Booklet

François Couperin, whose 350th birthday we celebrate this year, defined himself as a creator of musical portraits. The eloquent and sometimes exotic titles of many of these pieces bear witness to this. From the Nations to the Collected Tastes, as well as the Royal Concerts and the harpsichord repertoire, Les Folies françoises have painted throughout this album a portrait that pays homage to one of the greatest composers of the Sun King's court.

Tracklist:
1. Les Goûts Réunis, Huitième Concert dans le gout théâtral: I. Ouverture 02:48
2. Les Goûts Réunis, Huitième Concert dans le gout théâtral: II. Grande Ritournelle 02:31
3. Les Goûts Réunis, Huitième Concert dans le gout théâtral: III. Air 02:09
4. Les Goûts Réunis, Huitième Concert dans le gout théâtral: IV. Air tendre rondeau 01:49
5. Les Goûts Réunis, Huitième Concert dans le gout théâtral: V. Air léger 01:08
6. Les Goûts Réunis, Huitième Concert dans le gout théâtral: VI. Loure 02:22
7. Les Goûts Réunis, Huitième Concert dans le gout théâtral: VII. Air. Animé et léger 01:00
8. Les Goûts Réunis, Huitième Concert dans le gout théâtral: VIII. Sarabande 02:39
9. Les Goûts Réunis, Huitième Concert dans le gout théâtral: IX. Air léger 01:14
10. Les Goûts Réunis, Huitième Concert dans le gout théâtral: X. Air tendre 02:54
11. Les Goûts Réunis, Huitième Concert dans le gout théâtral: XI. Air des bacchantes 01:08
12. Quatrième livre de pièces pour clavecin, Vingt et unième Ordre: III. La Couperin 03:24
13. Les Goûts Réunis, Neuvième Concert "Rittrato dell'amore": VII. La Douceur 03:49
14. Les Nations, Premier ordre "La Françoise": VII. Passacaille 03:08
15. Troisième livre de pièces pour clavecin, Quatorzième Ordre: I. Le rossignol en Amour 03:45
16. Les Folies françoises: I. La Virginité, sous le Domino couleur d'Invisible 00:42
17. Les Folies françoises: II. La Pudeur, sous le Domino couleur de Roze 00:42
18. Les Folies françoises: III. L'Ardeur, sous le Domino incarnat 00:27
19. Les Folies françoises: IV. L'Espérance, sous le Domino vert 00:27
20. Les Folies françoises: V. La Fidélité, sous le Domino bleu 00:49
21. Les Folies françoises: VI. La Persévérance, sous le Domino gris de lin 00:33
22. Les Folies françoises: VII. La Langueur, sous le Domino violet 01:01
23. Les Folies françoises: VIII. La Coquéterie, sous différens Dominos 00:24
24. Les Folies françoises: IX. Les Vieux Galans et les trésorieres surannées, sous des Dominos pourpres et feuilles mortes 00:58
25. Les Folies françoises: X. Les Coucous bénévoles, sous des Dominos jaunes 00:23
26. Les Folies françoises: XI. La Jalousie taciturne, sous le Domino gris de maure 00:57
27. Les Folies françoises: XII. La Frénésie ou le Désespoir, sous le Domino noir 00:33
28. Les Nations, Quatrième Ordre "La Piémontoise": I. Gravement et rondement 02:30
29. Les Nations, Quatrième Ordre "La Piémontoise": II. Gravement 01:12
30. Les Nations, Quatrième Ordre "La Piémontoise": III. Vivement et marqué 01:20
31. Les Nations, Quatrième Ordre "La Piémontoise": IV. Premier air, second air 02:24
32. Les Nations, Quatrième Ordre "La Piémontoise": V. Gravement et marqué 01:34
33. Troisième Concert Royal: I. Prélude 01:54
34. Troisième Concert Royal: II. Allemande 02:23
35. Troisième Concert Royal: III. Courante 02:00
36. Troisième Concert Royal: IV. Sarabande 03:38
37. Troisième Concert Royal: V. Gavotte 01:13
38. Troisième Concert Royal: VI. Muzette 03:00
39. Troisième Concert Royal: VII. Chaconne 03:21

Personnel:
Les Folies françoises
Patrick Cohën-Akenine, direction

foobar2000 1.3.7 / Dynamic Range Meter 1.1.1
log date: 2018-06-06 20:32:10

––––––––––––––––––––––––––––––––––––––––
Analyzed: Les Folies Françoises, Patrick Cöhen-Akenine & Beatrice Martin / Portraits Croisés
––––––––––––––––––––––––––––––––––––––––

DR Peak RMS Duration Track
––––––––––––––––––––––––––––––––––––––––
DR11 -0.20 dB -13.91 dB 2:48 01-Les Goûts Réunis, Huitième Concert dans le gout théâtral: I. Ouverture
DR11 -0.34 dB -16.07 dB 2:31 02-Les Goûts Réunis, Huitième Concert dans le gout théâtral: II. Grande Ritournelle
DR11 -0.20 dB -15.84 dB 2:09 03-Les Goûts Réunis, Huitième Concert dans le gout théâtral: III. Air
DR11 -6.03 dB -21.88 dB 1:50 04-Les Goûts Réunis, Huitième Concert dans le gout théâtral: IV. Air tendre (rondeau)
DR13 -5.07 dB -20.63 dB 1:09 05-Les Goûts Réunis, Huitième Concert dans le gout théâtral: V. Air léger
DR11 -0.20 dB -14.58 dB 2:22 06-Les Goûts Réunis, Huitième Concert dans le gout théâtral: VI. Loure
DR11 -1.20 dB -14.35 dB 1:00 07-Les Goûts Réunis, Huitième Concert dans le gout théâtral: VII. Air. Animé et léger
DR11 -4.59 dB -20.30 dB 2:39 08-Les Goûts Réunis, Huitième Concert dans le gout théâtral: VIII. Sarabande
DR11 -0.20 dB -16.10 dB 1:14 09-Les Goûts Réunis, Huitième Concert dans le gout théâtral: IX. Air léger
DR11 -3.32 dB -18.89 dB 2:55 10-Les Goûts Réunis, Huitième Concert dans le gout théâtral: X. Air tendre
DR12 -0.20 dB -15.06 dB 1:08 11-Les Goûts Réunis, Huitième Concert dans le gout théâtral: XI. Air des bacchantes
DR12 -11.61 dB -26.83 dB 3:24 12-Quatrième livre de pièces pour clavecin, Vingt et unième Ordre: III. La Couperin
DR12 -1.65 dB -19.03 dB 3:49 13-Les Goûts Réunis, Neuvième Concert "Rittrato dell'amore": VII. La Douceur
DR12 -1.39 dB -17.26 dB 3:08 14-Les Nations, Premier ordre "La Françoise": VII. Passacaille
DR11 -7.13 dB -23.77 dB 3:45 15-Troisième livre de pièces pour clavecin, Quatorzième Ordre: I. Le rossignol en Amour
DR11 -13.76 dB -28.25 dB 0:42 16-Les Folies françoises: I. La Virginité, sous le Domino couleur d'Invisible
DR12 -17.26 dB -32.23 dB 0:42 17-Les Folies françoises: II. La Pudeur, sous le Domino couleur de Roze
DR11 -10.81 dB -25.26 dB 0:27 18-Les Folies françoises: III. L'Ardeur, sous le Domino incarnat
DR11 -11.97 dB -26.39 dB 0:28 19-Les Folies françoises: IV. L'Espérance, sous le Domino vert
DR11 -11.75 dB -27.22 dB 0:49 20-Les Folies françoises: V. La Fidélité, sous le Domino bleu
DR11 -16.93 dB -30.67 dB 0:34 21-Les Folies françoises: VI. La Persévérance, sous le Domino gris de lin
DR12 -13.44 dB -28.93 dB 1:02 22-Les Folies françoises: VII. La Langueur, sous le Domino violet
DR11 -12.59 dB -26.21 dB 0:24 23-Les Folies françoises: VIII. La Coquéterie, sous différens Dominos
DR13 -10.79 dB -27.19 dB 0:59 24-Les Folies françoises: IX. Les Vieux Galans et les trésorieres surannées, sous des Dominos pourpres et feuilles mortes
DR10 -17.93 dB -30.71 dB 0:23 25-Les Folies françoises: X. Les Coucous bénévoles, sous des Dominos jaunes
DR12 -11.62 dB -26.94 dB 0:58 26-Les Folies françoises: XI. La Jalousie taciturne, sous le Domino gris de maure
DR11 -10.26 dB -24.66 dB 0:33 27-Les Folies françoises: XII. La Frénésie ou le Désespoir, sous le Domino noir
DR12 -0.20 dB -16.65 dB 2:31 28-Les Nations, Quatrième Ordre "La Piémontoise": I. Gravement et rondement
DR11 -2.27 dB -20.05 dB 1:13 29-Les Nations, Quatrième Ordre "La Piémontoise": II. Gravement
DR12 -1.07 dB -16.72 dB 1:20 30-Les Nations, Quatrième Ordre "La Piémontoise": III. Vivement et marqué
DR13 -0.39 dB -18.51 dB 2:24 31-Les Nations, Quatrième Ordre "La Piémontoise": IV. Premier air, second air
DR12 -0.20 dB -15.91 dB 1:35 32-Les Nations, Quatrième Ordre "La Piémontoise": V. Gravement et marqué
DR10 -1.18 dB -15.94 dB 1:55 33-Troisième Concert Royal: I. Prélude
DR12 -0.20 dB -18.12 dB 2:23 34-Troisième Concert Royal: II. Allemande
DR11 -0.20 dB -15.29 dB 2:01 35-Troisième Concert Royal: III. Courante
DR13 -0.20 dB -18.17 dB 3:39 36-Troisième Concert Royal: IV. Sarabande
DR11 -9.26 dB -22.01 dB 1:13 37-Troisième Concert Royal: V. Gavotte
DR12 -0.35 dB -17.25 dB 3:01 38-Troisième Concert Royal: VI. Muzette
DR12 -0.20 dB -15.96 dB 3:22 39-Troisième Concert Royal: VII. Chaconne
––––––––––––––––––––––––––––––––––––––––

Number of tracks: 39
Official DR value: DR12

Samplerate: 96000 Hz
Channels: 2
Bits per sample: 24
Bitrate: 2994 kbps
Codec: FLAC
================================================================================


Thanks to the Original customer.