Foreigner - Inside Information (1987/2013) [Official Digital Download 24/192]

Posted By: SERTiL
Foreigner - Inside Information (1987/2013) [Official Digital Download 24/192]

Foreigner - Inside Information (1987/2013)
FLAC (tracks) 24-bit/192 kHz | Time - 44:40 minutes | 1.67 GB
Studio Master, Official Digital Download | Artwork: Front Cover

Foreigner was arguably the finest band of AOR's late-'70s and early-'80s heyday. Unfortunately, after a decade of monstrous success and raking in truckloads of cash for themselves and Atlantic Records, 1987's Inside Information showed that the songwriting gas tank of guitarist/keyboardist Mick Jones and vocalist Lou Gramm was running low. Impeccable studio craftsmanship can't compensate for the lack of quality songs. There are a few solid tracks, but the album only sold a million copies – paltry when compared to previous releases – and it currently ranks as Foreigner's last major commercial success. The proceedings start promisingly enough with "Heart Turns to Stone," an energetic rock number that became a minor hit. "Say You Will" was Foreigner's last great Top Ten single. It's loaded with killer vocal and keyboard hooks. The bloodless, pleasantly tepid ballad "I Don't Want to Live Without You" actually made the Top Five; it has neither the passion of "Waiting for a Girl Like You" nor the soul of "I Want to Know What Love Is." "Inside Information" experiments a little with odd rhythms. "The Beat of My Heart" is notable only for the Spanish guitar intro by guest Hugh McCracken. The gritty "Face to Face" is an excellent album track. "Out of the Blue" is the only song written by the entire band – Jones, Gramm, bassist Rick Wills, and drummer Dennis Elliott – and that does give it a slightly more organic feel. ~ Bret Adams

Tracklist:
01. Heart Turns To Stone (04:34)
02. Can't Wait (04:31)
03. Say You Will (04:15)
04. I Don't Want To Live Without You (04:56)
05. Counting Every Minute (04:12)
06. Inside Information (04:12)
07. The Beat Of My Heart (05:13)
08. Face To Face (03:56)
09. Out Of The Blue (04:44)
10. A Night To Remember (04:09)

foobar2000 1.3.7 / Dynamic Range Meter 1.1.1
log date: 2018-04-16 22:20:27

––––––––––––––––––––––––––––––––––––––––
Analyzed: Foreigner / Inside Information
––––––––––––––––––––––––––––––––––––––––

DR Peak RMS Duration Track
––––––––––––––––––––––––––––––––––––––––
DR12 -0.55 dB -15.01 dB 4:34 01-Heart Turns To Stone
DR13 -0.10 dB -17.30 dB 4:31 02-Can't Wait
DR13 -1.32 dB -16.66 dB 4:15 03-Say You Will
DR13 -2.69 dB -18.42 dB 4:56 04-I Don't Want To Live Without You
DR12 -1.79 dB -15.50 dB 4:12 05-Counting Every Minute
DR12 -0.37 dB -15.27 dB 4:13 06-Inside Information
DR12 -0.34 dB -15.29 dB 5:13 07-The Beat Of My Heart
DR14 -0.23 dB -15.98 dB 3:56 08-Face To Face
DR12 -2.36 dB -16.80 dB 4:45 09-Out Of The Blue
DR12 -1.55 dB -15.73 dB 4:10 10-A Night To Remember
––––––––––––––––––––––––––––––––––––––––

Number of tracks: 10
Official DR value: DR13

Samplerate: 192000 Hz
Channels: 2
Bits per sample: 24
Bitrate: 5416 kbps
Codec: FLAC
================================================================================


Thanks to the Original customer.