Ensemble Notturna - Forgotten Chamber Works with Oboe from the Court of Prussia (2018) [Official Digital Download]

Posted By: SERTiL
Ensemble Notturna - Forgotten Chamber Works with Oboe from the Court of Prussia (2018) [Official Digital Download]

Ensemble Notturna - Forgotten Chamber Works with Oboe from the Court of Prussia (2018)
FLAC (tracks) 24-bit/48 kHz | Time - 59:23 minutes | 660 MB
Studio Master, Official Digital Download | Artwork: Digital Booklet

The ensemble Notturna under the direction of oboist Christopher Palameta has unearthed repertoire in several archives worthy of rediscovery. On this album they present as world premiere recording Berlin Chamber Music at the time of Friedrich dem Großen (Frederick the Great). The commonality of the selected sonatas by respected composers such as Johann Gottlieb Janitsch (1708-1763), Christian Gottfried Krause (1717-1770) and Johann Gottlieb Graun (1703-1771) is the solo instrument oboe. In the shadow of the flute, the favorite instrument of Friedrich dem Großen (Frederick the Great), the role of the oboe at the Prussian Court was underestimated for a long time. However there is still a variety of sonatas and concerts for this instrument which survived from this time. The Quintet in A minor by Graun, who was concertmaster of the Royal Court Orchestra since 1741, is characterized by frequent and unexpected changes of affects, dynamics and harmonies in order to achieve expressive and sentimental effects. In contrast to this work are the Trio Sonata in A minor, the Quadro Sonata in B-flat major and the Trio Sonata in G major by Janitsch, who became a violinist in the Court Orchestra in 1736. His works are much more influenced by a gallant style with varied melodies. The Trio Sonata in D minor by Krause is particularly fascinating in its original third movement, in which the oboe enters into a dialogue with the violin. A recording of beautiful Baroque music in unique interpretations.

Tracklist:
1. Quadro Sonata in B-Flat Major, Op. 6: I. Larghetto (03:24)
2. Quadro Sonata in B-Flat Major, Op. 6: II. Allegretto (05:12)
3. Quadro Sonata in B-Flat Major, Op. 6: III. Allegro assai (05:09)
4. Trio Sonata in D Minor, ICK 7: I. Andante (02:11)
5. Trio Sonata in D Minor, ICK 7: II. Allegro (02:58)
6. Trio Sonata in D Minor, ICK 7: III. Vivace (03:05)
7. Quintet in A Minor, GraunWV Av:XIV:14: I. Amabile (03:11)
8. Quintet in A Minor, GraunWV Av:XIV:14: II. Allegro non tanto (05:07)
9. Quintet in A Minor, GraunWV Av:XIV:14: III. Allegro alla siciliana (07:47)
10. Trio Sonata in G Major, Op. deest: I. Un poco adagio (02:44)
11. Trio Sonata in G Major, Op. deest: II. Allegro (04:30)
12. Trio Sonata in G Major, Op. deest: III. Larghetto e cantabile (03:07)
13. Trio Sonata in A Minor, IJJ 27: I. Moderato (02:35)
14. Trio Sonata in A Minor, IJJ 27: II. Allegro (04:32)
15. Trio Sonata in A Minor, IJJ 27: III. Vivace (03:51)

foobar2000 1.3.7 / Dynamic Range Meter 1.1.1
log date: 2018-06-14 10:21:02

––––––––––––––––––––––––––––––––––––––––
Analyzed: Ensemble Notturna / Forgotten Chamber Works with Oboe from the Court of Prussia
––––––––––––––––––––––––––––––––––––––––

DR Peak RMS Duration Track
––––––––––––––––––––––––––––––––––––––––
DR13 -3.08 dB -20.75 dB 3:25 01-Quadro Sonata in B-Flat Major, Op. 6: I. Larghetto
DR12 -4.48 dB -20.92 dB 5:13 02-Quadro Sonata in B-Flat Major, Op. 6: II. Allegretto
DR14 -2.95 dB -20.47 dB 5:10 03-Quadro Sonata in B-Flat Major, Op. 6: III. Allegro assai
DR11 -5.67 dB -21.01 dB 2:11 04-Trio Sonata in D Minor, ICK 7: I. Andante
DR12 -4.77 dB -21.90 dB 2:59 05-Trio Sonata in D Minor, ICK 7: II. Allegro
DR13 -6.90 dB -23.20 dB 3:05 06-Trio Sonata in D Minor, ICK 7: III. Vivace
DR13 -6.09 dB -23.61 dB 3:11 07-Quintet in A Minor, GraunWV Av:XIV:14: I. Amabile
DR13 -5.11 dB -23.00 dB 5:08 08-Quintet in A Minor, GraunWV Av:XIV:14: II. Allegro non tanto
DR14 -3.87 dB -23.56 dB 7:48 09-Quintet in A Minor, GraunWV Av:XIV:14: III. Allegro alla siciliana
DR13 -5.21 dB -21.96 dB 2:45 10-Trio Sonata in G Major, Op. deest: I. Un poco adagio
DR11 -7.35 dB -21.54 dB 4:30 11-Trio Sonata in G Major, Op. deest: II. Allegro
DR13 -7.82 dB -23.69 dB 3:07 12-Trio Sonata in G Major, Op. deest: III. Larghetto e cantabile
DR13 -4.50 dB -21.77 dB 2:35 13-Trio Sonata in A Minor, IJJ 27: I. Moderato
DR12 -5.78 dB -22.58 dB 4:33 14-Trio Sonata in A Minor, IJJ 27: II. Allegro
DR13 -5.86 dB -22.97 dB 3:52 15-Trio Sonata in A Minor, IJJ 27: III. Vivace
––––––––––––––––––––––––––––––––––––––––

Number of tracks: 15
Official DR value: DR13

Samplerate: 48000 Hz
Channels: 2
Bits per sample: 24
Bitrate: 1506 kbps
Codec: FLAC
================================================================================


Thanks to the Original customer.