Henri Texier - Sky Dancers (2016) [Official Digital Download 24/96]

Posted By: Pisulik
Henri Texier - Sky Dancers (2016) [Official Digital Download 24/96]

Henri Texier - Sky Dancers (2016)
FLAC (tracks) 24-bit/96 kHz | Time - 69:45 minutes | 1,46 GB
Studio Master, Official Digital Download | Artwork: Front cover

Return Henri Texier, legend of the transalpine jazz, with the last mutation of the group started with Francois Corneloup to the baritone and the son Sébastien to the contralto. The two saxophonists were in the organic of the Strada Sextet ((V) ivre, Label Bleu 2005), they animated the most recent Hope Quartet (with the drummer Louis Moutin) and we find them together here, next to the guitarist Nguyen Le and the pianist Armel Dupas.

Following the propensity for the traditional cultures of half the world, the double bass player now turns his attention to the natives of North America, without attempting to venture with the musical forms of those populations. In a modern mainstream inventive, characterized rhythmically, rich climate changes and whirling solos, we find only a few references to rhythmic forms similar to the dances of those populations. "As far as I can remember," says Texier, "I've always been interested in the American Indians." As a child I masqueraded like them, finding them more vivid, seductive and inventive. (…) Later, at the same time as I discovered jazz, I studied the knowledge of those cultures, remaining fascinated by the absolute respect they had for nature. "

The compositions of this album (from the indicative titles) should therefore be seen as a tribute with a strong emotional value, which was shared in music with its partners.

The result is a tumultuous and compelling jazz, which is similar to the Amerindian people in the colorful colors. One of the characteristic features is the drumming of Louis Moutin, a constant source of impulses and suggestions, which stands out for the pressing background and the rhythmic alterations.

Sebastien Texier has long been a notable alto sax and the contrast between its bright and dark timbre of Corneloup to the baritone is one of the strengths of this music. Particularly convincing is also the role of Nguyen Le who adds chromatic variety in passing from bop guitar styles to burning moments, post-Hendrixians.

Texier father guides with magistero the unfolding of his beautiful compositions, intervening with some pregnant solos.

Tracklist:

01. Mic Mac
02. Dakota Mab
03. Clouds Warriors
04. He Was Just Shining
05. Mapuche
06. Hopi
07. Navajo Dream
08. Comanche
09. Paco Atao

Personnel:

Sébastien Texier - sax contralto, clarinetto contralto, clarinetto
François Corneloup - sax baritono
Nguyen Le - chitarra
Armel Dupas - pianoforte, piano elettrico
Henri Texier - contrabbasso
Louis Moutin - batteria

foobar2000 1.3.7 / Dynamic Range Meter 1.1.1
log date: 2018-04-16 05:49:17

––––––––––––––––––––––––––––––––––––––––
Analyzed: Henri Texier / Sky Dancers
––––––––––––––––––––––––––––––––––––––––

DR Peak RMS Duration Track
––––––––––––––––––––––––––––––––––––––––
DR9 0.00 dB -11.44 dB 11:08 01-Mic Mac
DR9 0.00 dB -12.00 dB 8:21 02-Dakota Mab
DR7 0.00 dB -9.41 dB 7:49 03-Clouds Warriors
DR10 0.00 dB -12.51 dB 9:33 04-He Was Just Shining
DR7 0.00 dB -9.13 dB 7:35 05-Mapuche
DR12 0.00 dB -14.98 dB 7:48 06-Hopi
DR11 -4.30 dB -17.76 dB 1:52 07-Navajo Dream
DR6 0.00 dB -9.04 dB 11:39 08-Comanche
DR10 0.00 dB -11.85 dB 4:06 09-Paco Atao
––––––––––––––––––––––––––––––––––––––––

Number of tracks: 9
Official DR value: DR9

Samplerate: 96000 Hz
Channels: 2
Bits per sample: 24
Bitrate: 2759 kbps
Codec: FLAC
================================================================================


All thanks go to the original releaser