Huey Lewis And The News - Sports (1983/2013) [Official Digital Download 24/192]

Posted By: Pisulik
Huey Lewis And The News - Sports (1983/2013) [Official Digital Download 24/192]

Huey Lewis And The News - Sports (1983/2013)
FLAC (tracks) 24-bit/192 kHz | Time - 37:41 minutes | 1,50 GB
Studio Master, Official Digital Download | Artwork: Front cover

After two mildly successful, vaguely new-wave albums, Bay Area bar band Huey Lewis and the News (several of whose members had backed Elvis Costello on MY AIM IS TRUE) hooked up with mega-selling producer Mike Chapman and released 1983's SPORTS. The album dominated both AM and FM radio throughout 1984, aligning it with THRILLER, PURPLE RAIN, SHE'S SO UNUSUAL, and Madonna's early singles as definitive pop music of its era. SPORTS is genial frat-boy rock at its finest. Singles 'The Heart of Rock and Roll,' 'Heart and Soul,' 'I Want a New Drug,' and 'If This is It' comprise half of the album, and these songs have stood up to repeated listens. Hearing SPORTS today, the album still sounds surprisingly fresh, all the more remarkable when one considers how poorly other hits of the day have fared.

Tracklist:

01. The Heart Of Rock And Roll
02. Heart And Soul
03. Bad Is Bad
04. I Want A New Drug
05. Walking On A Thin Line
06. Finally Found A Home
07. If This Is It
08. You Crack Me Up
09. Honky Tonk Blues

Personnel:

Huey Lewis - vocals, harmonica
Johnny Colla - vocals, saxophone, guitar
Chris Hayes - lead guitar, vocals
Sean Hopper - keyboards, vocals
Mario Cipollina - bass
Bill Gibson - drums, vocals, percussion

foobar2000 1.3.7 / Dynamic Range Meter 1.1.1
log date: 2018-01-12 07:33:30

––––––––––––––––––––––––––––––––––––––––
Analyzed: Huey Lewis, The News / Sports
––––––––––––––––––––––––––––––––––––––––

DR Peak RMS Duration Track
––––––––––––––––––––––––––––––––––––––––
DR9 -0.72 dB -12.10 dB 5:04 01-The Heart Of Rock And Roll
DR10 -1.01 dB -12.39 dB 4:13 02-Heart And Soul
DR9 -1.19 dB -11.51 dB 3:48 03-Bad Is Bad
DR9 -0.39 dB -11.50 dB 4:46 04-I Want A New Drug
DR9 -0.73 dB -11.59 dB 5:11 05-Walking On A Thin Line
DR8 -1.22 dB -11.48 dB 3:43 06-Finally Found A Home
DR8 -0.64 dB -11.23 dB 3:53 07-If This Is It
DR8 -1.11 dB -11.02 dB 3:43 08-You Crack Me Up
DR9 -1.11 dB -11.82 dB 3:20 09-Honky Tonk Blues
––––––––––––––––––––––––––––––––––––––––

Number of tracks: 9
Official DR value: DR9

Samplerate: 192000 Hz
Channels: 2
Bits per sample: 24
Bitrate: 5520 kbps
Codec: FLAC
================================================================================


All thanks go to the original releaser