James Bay - Electric Light (2018) [Official Digital Download]

Posted By: pyatak
James Bay - Electric Light (2018) [Official Digital Download]

James Bay - Electric Light (2018) [Official Digital Download]
FLAC (tracks) 24-bit/48 kHz | Front Cover | Time - 48:33 minutes | 607 MB
Pop, Pop Rock | Label: Republic Records, Official Digital Download

Following on from his huge multi-platinum debut album Chaos And The Calm, James Bay returns with Electric Light. Towering, rocky and soulful songs, it sounds like he's grasped influences in electronic music for this release.

“If I had to describe my first album visually it would probably be a flame – while this new album is about a real sonic and artistic evolution for me. The feeling of a 100 watt bulb expanding and brightening is what I envisioned. ‘Electric Light’ came to my mind and I knew it was perfect.”

TRACKLIST

1. Intro
2. Wasted On Each Other
3. Pink Lemonade
4. Wild Love
5. Us
6. In My Head
7. Interlude
8. Just For Tonight
9. Wanderlust
10. I Found You
11. Sugar Drunk High
12. Stand Up
13. Fade Out
14. Slide

foobar2000 1.3.16 / Dynamic Range Meter 1.1.1
log date: 2018-05-17 20:28:33

––––––––––––––––––––––––––––––––––––––––
Analyzed: James Bay / Electric Light
––––––––––––––––––––––––––––––––––––––––

DR Peak RMS Duration Track
––––––––––––––––––––––––––––––––––––––––
DR7 -2.08 dB -13.12 dB 0:59 01-Intro
DR3 0.00 dB -4.75 dB 3:59 02-Wasted On Each Other
DR3 0.00 dB -4.51 dB 4:15 03-Pink Lemonade
DR4 0.00 dB -6.35 dB 3:17 04-Wild Love
DR4 0.00 dB -6.15 dB 3:01 05-Us
DR4 0.00 dB -7.75 dB 3:07 06-In My Head
DR10 -2.22 dB -17.00 dB 1:01 07-Interlude
DR5 0.00 dB -6.63 dB 3:37 08-Just For Tonight
DR3 0.00 dB -5.44 dB 4:16 09-Wanderlust
DR4 0.00 dB -6.07 dB 5:07 10-I Found You
DR4 0.00 dB -5.97 dB 3:40 11-Sugar Drunk High
DR3 0.00 dB -6.50 dB 4:59 12-Stand Up
DR4 0.00 dB -5.86 dB 3:53 13-Fade Out
DR6 0.00 dB -9.76 dB 3:22 14-Slide
––––––––––––––––––––––––––––––––––––––––

Number of tracks: 14
Official DR value: DR5

Samplerate: 48000 Hz
Channels: 2
Bits per sample: 24
Bitrate: 1630 kbps
Codec: FLAC
================================================================================



Thanks to the Original customer.