Jasper Somsen Trio - A New Episode in Life Pt. II (2017) [Official Digital Download 24/88]

Posted By: Pisulik
Jasper Somsen Trio - A New Episode in Life Pt. II (2017) [Official Digital Download 24/88]

Jasper Somsen Trio - A New Episode in Life Pt. II (2017)
FLAC (tracks) 24-bit/88.2 kHz | Time - 55:04 minutes | 941 MB
Studio Master, Official Digital Download | Artwork: Front cover

A New Episode In Life Pt. II was recorded by Jasper Somsen (double bass), Andre Ceccarelli (drums) and Jean-Michel Pilc (piano) the day after they recorded Part I, which was completed in one day rather than two. This album contains free-form improvisation and some jazz standards and is a true accomplishment by three very experienced and talented musicians. 'Since my repertoire was already recorded on day one, we decided to record free-form improvisations, as well as some standards from the Great American Songbook. Back at the studio, at eleven o'clock in the morning, we asked recording engineer Floren van Stichel just to let the recording run until we would say when. The complete Solar Suite and Blue Monk were recorded in one entire twenty-three minute take… Spontaneously, we dove into the next improvisation or standard and went back and forth to the recording booth listening, after a few takes. We just started to play, not mentioning any titles or preconceived ideas Within six hours, including lunch, we recorded the entire second album.

Tracklist:

01. Solar Suite: I
02. Solar Suite: II
03. Solar Suite: III
04. Solar Suite: IV - Solar
05. Blue Monk:
06. A New Episode in Life
07. Someday My Romance Will Come
08. All the Things You Are
09. All of You
10. After Thought: I
11. After Thought: II

foobar2000 1.3.7 / Dynamic Range Meter 1.1.1
log date: 2018-02-13 06:16:46

––––––––––––––––––––––––––––––––––––––––
Analyzed: Jasper Somsen Trio / A New Episode in Life Pt. II
––––––––––––––––––––––––––––––––––––––––

DR Peak RMS Duration Track
––––––––––––––––––––––––––––––––––––––––
DR13 -2.08 dB -20.96 dB 4:08 01-Solar Suite I
DR13 -1.84 dB -20.80 dB 4:34 02-Solar Suite II
DR15 -0.23 dB -20.66 dB 3:54 03-Solar Suite III
DR15 -0.02 dB -20.33 dB 6:59 04-Solar Suite IV Solar
DR15 -4.22 dB -24.78 dB 4:01 05-Blue Monk
DR14 -1.57 dB -20.49 dB 6:14 06-A New Episode in Life
DR12 -2.53 dB -20.05 dB 5:35 07-Someday My Romance Will Come
DR15 -5.78 dB -26.69 dB 5:39 08-All the Things You Are
DR15 -0.18 dB -20.83 dB 6:30 09-All of You
DR16 0.00 dB -20.66 dB 4:39 10-After Thought I
DR15 -11.31 dB -30.95 dB 3:00 11-After Thought II
––––––––––––––––––––––––––––––––––––––––

Number of tracks: 11
Official DR value: DR14

Samplerate: 88200 Hz
Channels: 2
Bits per sample: 24
Bitrate: 2070 kbps
Codec: FLAC
================================================================================


All thanks go to the original releaser