Jasper Somsen Trio - A New Episode in Life Pt. I (2017) [Official Digital Download 24/88]

Posted By: Pisulik
Jasper Somsen Trio - A New Episode in Life Pt. I (2017) [Official Digital Download 24/88]

Jasper Somsen Trio - A New Episode in Life Pt. I (2017)
FLAC (tracks) 24-bit/88.2 kHz | Time - 50:44 minutes | 866 MB
Studio Master, Official Digital Download | Artwork: Front cover

It's no coincidence Jasper Somsen's 3rd (and later this year 4th) Challenge Records album features an international piano trio line up. Recent years performing and/or recording in trio with a.o. Enrico Pieranunzi, Joey Calderazzo, John Beasley, Jeff Ballard, Justin Faulkner and Andre Ceccarelli, he is much sought-after by pianists. The former New York, now Montreal-based French master pianist and composer Jean-Michel Pilc and one of Jasper's all-time favorite French drummers Andre Ceccarelli joined him for this diptych. At their first encounter ever, this trio with Jean-Michel Pilc and Andre Ceccarelli recorded A New Episode in Life Part I & A New Episode in Life Part II in just two days. The album contains nine melodically strong instrumental compositions by double bass player, Jasper Somsen. Transparency is the key word in musical expression and form throughout the entire album, similar to songs without words.

Tracklist:

01. Beneath the Surface (For Enrico)
02. No News Is Good News Coming
03. Full Circles
04. Blue Lady
05. Parallel Reality
06. She Says, He Says
07. Corinaldo
08. When Hands Are Tied
09. Apparent Contrasts

foobar2000 1.3.7 / Dynamic Range Meter 1.1.1
log date: 2018-02-13 06:02:44

––––––––––––––––––––––––––––––––––––––––
Analyzed: Jasper Somsen Trio / A New Episode in Life Pt. I
––––––––––––––––––––––––––––––––––––––––

DR Peak RMS Duration Track
––––––––––––––––––––––––––––––––––––––––
DR13 -2.79 dB -21.63 dB 6:24 01-Beneath the Surface (For Enrico)
DR14 0.00 dB -19.13 dB 6:58 02-No News Is Good News Coming
DR14 -3.17 dB -22.75 dB 4:57 03-Full Circles
DR15 -0.02 dB -21.16 dB 5:03 04-Blue Lady
DR12 -8.50 dB -26.64 dB 4:32 05-Parallel Reality
DR13 -2.86 dB -20.22 dB 4:59 06-She Says, He Says
DR14 -1.79 dB -21.74 dB 5:25 07-Corinaldo
DR14 -5.28 dB -24.96 dB 6:59 08-When Hands Are Tied
DR14 -2.09 dB -21.69 dB 5:30 09-Apparent Contrasts
––––––––––––––––––––––––––––––––––––––––

Number of tracks: 9
Official DR value: DR14

Samplerate: 88200 Hz
Channels: 2
Bits per sample: 24
Bitrate: 2392 kbps
Codec: FLAC
================================================================================


All thanks go to the original releaser