Jenn Champion - Single Rider (2018) [Official Digital Download]

Posted By: SERTiL
Jenn Champion - Single Rider (2018) [Official Digital Download]

Jenn Champion - Single Rider (2018)
FLAC (tracks) 24-bit/44.1 kHz | Time - 44:40 minutes | 466 MB
Studio Master, Official Digital Download | Artwork: Front Cover

Fans of Jenn Champion (formerly “S”) have praised her open-hearted lyrics, expertly-deployed melancholia, technical skill, and willingness to forgo conventions, but mostly they’ve praised her for making albums they could cry to. With the release of Cool Choices in 2014, Champion made what many considered the best record of her career, and a lot of people cried to it.

On Single Rider, Champion brings with her all those skills and vulnerabilities, but it is not a record for wallowing: it is a record for intense eye contact on the dancefloor. “Sometimes you are sad and you just want to dance about it,” said Champion.

Side B of Cool Choices presaged Champion’s agit-pop transformation. “Let the Light In” and "Tell Me" signalled her move toward a more electronic sound, but it was the digital single “No One” (2016) that marked the clear delineation. “I feel like a door got opened in my mind with electronic and digital music. There was a room I hadn’t explored before and I stepped in,” said Champion. While she’d initially intended to follow Cool Choices with “a rock record - guitar, a lot of pedals, heavy riffs,” plans changed. “I couldn’t pull myself away from the synthesizers and I realized the record I really wanted to make was more of a cross between Drake and Billy Joel than Blue Oyster Cult.”

Soon after the release of No One, Champion’s publishers partnered her with Brian Fennell, aka SYML, and the two co-wrote the song “Leave Like That” (featured on SYML’s Hurt For Me EP). The pair hit it off, and with nearly all of Champion’s Single Rider demos completed, the timing was perfect–she was looking for a producer. “I guess you could say I pursued Brian.”

Fortunately, Fennell was open to being pursued and the two spent the next five months working on Single Rider. “In the studio with Brian, I was more open than I had ever been.” With Champion’s vision and Fennell’s expertise, the record evolved from synthy roughs to a hi-fi dance album.

Despite the new direction in her sound, emotion cuts through on Single Rider in the classic Champion style, weaving simultaneously pleading-and-incensed vocals into anthemic pop songs. Champion wants her listeners to see that the rooms are all on fire and she has not given up. Taking a double “fuck you” approach to the world, to the patriarchy, all the things which screw you up and hold you back, she is dancing right on out of the disappointment apocalypse with her middle fingers in the air, and you can follow if you want to.



Tracklist:
1. O.M.G. (I'm All Over It) (03:43)
2. Coming for You (03:32)
3. You Knew (03:13)
4. Holding On (04:19)
5. The Move (03:43)
6. Never Giving In (03:26)
7. Mainline (03:23)
8. Time to Regulate (03:30)
9. Bleed (02:54)
10. Hustle (03:30)
11. Going Nowhere (03:25)
12. No One (Piano Version) (03:01)
13. Time to Regulate (Gold Brother Remix) (03:01)

foobar2000 1.3.7 / Dynamic Range Meter 1.1.1
log date: 2018-07-12 12:08:16

––––––––––––––––––––––––––––––––––––––––
Analyzed: Jenn Champion / Single Rider
––––––––––––––––––––––––––––––––––––––––

DR Peak RMS Duration Track
––––––––––––––––––––––––––––––––––––––––
DR9 -1.30 dB -12.78 dB 3:44 01-O.M.G. (I'm All Over It)
DR9 -1.30 dB -11.32 dB 3:33 02-Coming for You
DR8 -1.30 dB -12.05 dB 3:14 03-You Knew
DR8 -1.30 dB -11.33 dB 4:20 04-Holding On
DR9 -1.30 dB -12.62 dB 3:44 05-The Move
DR8 -1.30 dB -11.41 dB 3:26 06-Never Giving In
DR8 -1.30 dB -11.59 dB 3:24 07-Mainline
DR9 -1.30 dB -11.65 dB 3:31 08-Time to Regulate
DR9 -1.30 dB -13.88 dB 2:55 09-Bleed
DR9 -1.30 dB -13.31 dB 3:31 10-Hustle
DR9 -1.30 dB -13.44 dB 3:26 11-Going Nowhere
DR10 -1.30 dB -14.61 dB 3:02 12-No One (Piano Version)
DR8 -1.55 dB -10.50 dB 3:01 13-Time to Regulate (Gold Brother Remix)
––––––––––––––––––––––––––––––––––––––––

Number of tracks: 13
Official DR value: DR9

Samplerate: 44100 Hz
Channels: 2
Bits per sample: 24
Bitrate: 1490 kbps
Codec: FLAC
================================================================================


Thanks to the Original customer.