Subcategories

John Coltrane - Stardust (1963) {Rudy Van Gelder Remaster} [TR24][SM][OF]

Posted By: popsakov
John Coltrane - Stardust (1963) {Rudy Van Gelder Remaster} [TR24][SM][OF]

John Coltrane - Stardust (1963) {Rudy Van Gelder Remaster}
FLAC (Tracks) 24-bit/44.1kHz ~ 455 Mb | Digital Booklet | 37:18 min | RAR 5% Recovery
Jazz, Hard Bop | © 2007 Concord Music Group

It's hard to believe after hearing the eloquence of "Then I'll Be Tired of You" or the title track, but John Coltrane's ballad mastery was the last of his skills to receive wide appreciation. The notion that Coltrane the balladeer was as commanding as Coltrane the uptempo wizard or Coltrane the blues player finally gained acceptance in the early 60s, when this album first appeared and quickly became an important exhibit in the reconsideration.

The extended performances boast additional delights, including Paul Chambers's arco bass on "Stardust," Red Garland's well-paced choruses on "Time After Time," some of Wilbur Harden's best trumpet work on "Love Thy Neighbor," and Freddie Hubbard's earliest on "Then I'll Be Tired of You"; they were recorded at Coltrane's final two sessions for Prestige.

Recorded July 11 and December 26, 1958 at Van Gelder Studio in Hackensack, NJ.
***************

Track List:

01. Stardust [10:44]
02. Time After Time [7:45]
03. Love Thy Neighbor [9:22]
04. Then I'll Be Tired Of You [9:27]

Personnel:
John Coltrane - tenor saxophone
Wilbur Harden - flugelhorn, trumpet
Freddie Hubbard - trumpet
Red Garland - piano
Paul Chambers - bass
Jimmy Cobb - drums
Arthur Taylor - drums

Production:
Recording and mastering engineer: Rudy Van Gedler

All transfers were made from the analog master tapes to digital at 24-bit resolution.

foobar2000 1.2.6 / Dynamic Range Meter 1.1.1
log date: 2017-01-09 12:59:14

––––––––––––––––––––––––––––––––––––––––
Analyzed: John Coltrane,


Red Garland,
Paul Chambers,
Art Taylor / Stardust (1)
John Coltrane,
Wilbur Harden,
Red Garland,
Paul Chambers,
Jimmy Cobb / Stardust (2-3)
John Coltrane, Freddie Hubbard,
Red Garland,
Paul Chambers,
Art Taylor / Stardust (4)
––––––––––––––––––––––––––––––––––––––––

DR Peak RMS Duration Track
––––––––––––––––––––––––––––––––––––––––
DR10 -0.01 dB -12.87 dB 7:45 02-Time After Time
DR10 -0.03 dB -13.48 dB 10:44 01-Stardust
DR11 0.00 dB -12.89 dB 9:22 03-Love Thy Neighbor
DR11 0.00 dB -13.48 dB 9:27 04-Then I'll Be Tired Of You
––––––––––––––––––––––––––––––––––––––––

Number of tracks: 4
Official DR value: DR11

Samplerate: 44100 Hz
Channels: 2
Bits per sample: 24
Bitrate: 1570 kbps
Codec: FLAC
================================================================================

John Coltrane - Stardust (1963) {Rudy Van Gelder Remaster} [TR24][SM][OF]

All thanks go to the original customer

> Visit my blog <