John Butler - Searching For Heritage (1996/2016) [Official Digital Download]

Posted By: SERTiL
John Butler - Searching For Heritage (1996/2016) [Official Digital Download]

John Butler - Searching For Heritage (1996/2016)
FLAC (tracks) 24-bit/48 kHz | Time - 48:55 minutes | 579 MB
Studio Master, Official Digital Download | Artwork: Front Cover

Searching for Heritage is a cassette tape that John Butler recorded and sold while he was busking on the streets of Fremantle in 1996. It is a collection of instrumental songs, some of which ("Ocean" and "Valley") were re-recorded on the debut self-titled album John Butler. During this time, Butler was usually playing on his own. Completely self funded, it sold three and a half thousand copies and enabled Butler to fund his first CD recording.

The tape is highly sought after by collectors and is very much unavailable other than from second hand dealers. No copies remain for sale and Butler has stressed that it won’t be re-released anytime in his foreseeable future.

Tracklist:
1. River Song
2. Valley
3. Desert Snow
4. Some Place Familiar
5. Newd
6. River Song (busk version)
7. Desert Snow (8 track)
8. Valley (dat)
9. Long Trek

foobar2000 1.3.7 / Dynamic Range Meter 1.1.1
log date: 2018-05-17 12:07:04

––––––––––––––––––––––––––––––––––––––––
Analyzed: John Butler / Searching For Heritage
––––––––––––––––––––––––––––––––––––––––

DR Peak RMS Duration Track
––––––––––––––––––––––––––––––––––––––––
DR5 0.00 dB -7.05 dB 4:47 01-River Song
DR5 0.00 dB -7.20 dB 4:51 02-Valley
DR6 0.00 dB -7.67 dB 7:14 03-Desert Snow
DR8 0.00 dB -10.09 dB 4:47 04-Some Place Familiar
DR7 0.00 dB -9.68 dB 4:56 05-Newd
DR6 0.00 dB -8.20 dB 6:52 06-River Song (busk version)
DR7 0.00 dB -9.20 dB 5:40 07-Desert Snow (8 track)
DR8 -0.01 dB -9.34 dB 5:47 08-Valley (dat)
DR6 0.00 dB -8.69 dB 4:04 09-Long Trek
––––––––––––––––––––––––––––––––––––––––

Number of tracks: 9
Official DR value: DR7

Samplerate: 48000 Hz
Channels: 2
Bits per sample: 24
Bitrate: 1621 kbps
Codec: FLAC
================================================================================


Thanks to the Original customer.