John Coltrane - Settin' The Pace (1961/2016) [Official Digital Download 24/192]

Posted By: Pisulik
John Coltrane - Settin' The Pace (1961/2016) [Official Digital Download 24/192]

John Coltrane - Settin' The Pace (1961/2016)
FLAC (tracks) 24-bit/192 kHz | Time - 52:41 minutes | 2,39 GB
Studio Master, Official Digital Download | Artwork: Digital Booklet

Coltrane does not do the old Dexter Gordon/Leo Parker duet number, "Settin' the Pace," in this set. The overall title merely refers to his preeminence in the jazz world at the time the recording was released in the early Sixties. Recorded in 1958, this session comes from a time when Trane had already played in the Miles Davis quintet and the Thelonious Monk quartet, and was frequenting Rudy Van Gelder's New Jersey studio in recording situations backed by the Red Garland trio. This threesome–Garland, Paul Chambers, and Arthur Taylor–was a Prestige entity on its own, but had already released such albums with Coltrane as Traneing In and Soultrane. Settin' the Pace, with its heady combination of seldom-done pop material and Jackie McLean's intriguing "Little Melonae," continued the excellent quartet series at a time when Trane was making jazz history at the head of yet another powerful foursome. with Red Garland, Paul Chambers, Arthur Taylor

This is John Coltrane from the period when he was a member of Miles Davis' legendary 1950s quintet, accompanied by fellow quintet members Red Garland and Paul Chambers. This is Coltrane in a relaxed bop mode, making some swinging, relaxed jazz in the vein of Sonny Rollins and Stan Getz (the latter in his more boppish mode). This is not the fire-breathing saxophonist of the mid-'60s, but a player who was beginning to push against the boundaries, all the while playing with thoughtful, imaginative lyricism. It's a set of little-known pop tunes of the era, with the exception of Jackie McLean's "Little Melonae." Anyone who likes the mainstream jazz of the '50s, or Miles' music of that time, or Coltrane fans who want to hear their idol in an easygoing context, should pick this up.

Tracklist:

01. I See Your Face Before Me
02. If There Is Someone Lovelier Than You
03. Little Melonae
04. Rise 'N' Shine
05. By The Numbers

Personnel:

John Coltrane - Tenor Saxophone
Red Garland - Piano
Paul Chambers - Bass
Arthur Taylor - Drums

foobar2000 1.3.7 / Dynamic Range Meter 1.1.1
log date: 2018-01-12 04:16:54

––––––––––––––––––––––––––––––––––––––––
Analyzed: John Coltrane / Settin' The Pace
––––––––––––––––––––––––––––––––––––––––

DR Peak RMS Duration Track
––––––––––––––––––––––––––––––––––––––––
DR13 -0.10 dB -18.00 dB 9:57 01-I See Your Face Before Me
DR13 -0.10 dB -16.51 dB 9:20 02-If There Is Someone Lovelier Than You
DR14 -0.10 dB -17.19 dB 14:08 03-Little Melonae
DR14 -0.10 dB -16.56 dB 7:15 04-Rise 'N' Shine
DR15 -0.10 dB -18.83 dB 12:01 05-By The Numbers
––––––––––––––––––––––––––––––––––––––––

Number of tracks: 5
Official DR value: DR14

Samplerate: 192000 Hz
Channels: 2
Bits per sample: 24
Bitrate: 6484 kbps
Codec: FLAC
================================================================================


All thanks go to the original releaser