Johnny Cash - Johnny Cash At San Quentin (Live) (1969/2014) [Official Digital Download 24/96]

Posted By: Pisulik
Johnny Cash - Johnny Cash At San Quentin (Live) (1969/2014) [Official Digital Download 24/96]

Johnny Cash - Johnny Cash At San Quentin (Live) (1969/2014)
FLAC (tracks) 24-bit/96 kHz | Time - 34:04 minutes | 738 MB
Studio Master, Official Digital Download | Artwork: Front cover

One of country music's unequivocal stars, Johnny Cash retained respect for the travails of the audience elevating him to that position. Recorded live at one of America's most notorious prisons, this album displays an empathy bereft of condescension and captures a performer combining charisma with natural ease. The material is balanced between established favorites and new material including "Wanted Man" (an unrecorded Bob Dylan song), and the lighthearted hit "A Boy Named Sue." It was not the first time Cash had recorded in a penal institution, but this appearance, at a time when American values were vociferously questioned, suggested the artist's rebelliousness had not dimmed.

Tracklist:

01. Wanted Man
02. Wreck Of The Old '97
03. I Walk The Line
04. Darlin' Companion
05. Starkville City Jail
06. San Quentin
07. San Quentin (2)
08. A Boy Named Sue
09. (There'll Be) Peace In The Valley
10. Folsom Prison Blues

Personnel:

Johnny Cash - vocal, Acoustic guitar
June Carter Cash - vocal
Carter Family - vocals, autoharp, guitar
Marshall Grant - bass
W.S. Holland - drums
Carl Perkins - electric guitar
Bob Wootton - electric guitar
The Statler Brothers - vocals

foobar2000 1.3.7 / Dynamic Range Meter 1.1.1
log date: 2018-01-13 01:41:49

––––––––––––––––––––––––––––––––––––––––
Analyzed: Johnny Cash / Johnny Cash At San Quentin (Live)
––––––––––––––––––––––––––––––––––––––––

DR Peak RMS Duration Track
––––––––––––––––––––––––––––––––––––––––
DR10 -0.12 dB -12.10 dB 4:02 01-Wanted Man
DR9 -0.59 dB -13.17 dB 3:24 02-Wreck Of The Old '97
DR9 -1.29 dB -12.46 dB 2:15 03-I Walk The Line
DR11 -0.54 dB -14.87 dB 7:08 04-Darlin' Companion
DR10 -1.71 dB -14.96 dB 2:22 05-Starkville City Jail
DR10 -1.03 dB -14.03 dB 3:48 06-San Quentin
DR10 -1.37 dB -14.26 dB 3:05 07-San Quentin (2)
DR11 -0.98 dB -14.48 dB 3:54 08-A Boy Named Sue
DR11 -2.19 dB -16.42 dB 2:37 09-(There'll Be) Peace In The Valley
DR9 -1.80 dB -13.13 dB 1:29 10-Folsom Prison Blues
––––––––––––––––––––––––––––––––––––––––

Number of tracks: 10
Official DR value: DR10

Samplerate: 96000 Hz
Channels: 2
Bits per sample: 24
Bitrate: 2979 kbps
Codec: FLAC
================================================================================


All thanks go to the original releaser