Kenny Burrell & John Coltrane - Kenny Burrell & John Coltrane (1958/2014) [Official Digital Download 24/192]

Posted By: Pisulik
Kenny Burrell & John Coltrane - Kenny Burrell & John Coltrane (1958/2014) [Official Digital Download 24/192]

Kenny Burrell & John Coltrane - Kenny Burrell & John Coltrane (1958/2014)
FLAC (tracks) 24-bit/192 kHz | Time - 37:32 minutes | 1,33 GB
Studio Master, Official Digital Download | Artwork: Digital Booklet

This is a prime example of an informal studio jam session in the critical period when John Coltrane was perfecting his 'sheets of sound' approach. The emerging tenor star is the focal point in a quintet filled with serendipitous connections. Kenny Burrell, Tommy Flanagan, and Paul Chambers were at the forefront of an emerging generation of young Detroit modernists; Burrell, Coltrane, and Flanagan had proved their compatibility a year earlier on The Cats (OJC-079); and Jimmy Cobb was poised to become a regular partner of Coltrane and Chambers in the Miles Davis sextet. The tenor/guitar duet 'Why Was I Born?' is a unique gem in an album filled with assured and eloquent blowing.

Tracklist:

01. Freight Trane
02. I Never Knew
03. Lyresto
04. Why Was I Born
05. Big Paul

Personnel:

John Coltrane - Tenor Saxophone
Tommy Flanagan - Piano
Kenny Burrell - Guitar
Paul Chambers - Bass
Jimmy Cobb - Drums

foobar2000 1.3.7 / Dynamic Range Meter 1.1.1
log date: 2018-01-12 04:25:10

––––––––––––––––––––––––––––––––––––––––
Analyzed: Kenny Burrell & John Coltrane / Kenny Burrell & John Coltrane
––––––––––––––––––––––––––––––––––––––––

DR Peak RMS Duration Track
––––––––––––––––––––––––––––––––––––––––
DR10 -0.10 dB -12.18 dB 7:22 01-Freight Trane
DR10 -0.10 dB -11.76 dB 7:07 02-I Never Knew
DR10 -0.10 dB -11.51 dB 5:45 03-Lyresto
DR11 -0.10 dB -15.01 dB 3:14 04-Why Was I Born
DR11 -0.10 dB -13.81 dB 14:03 05-Big Paul
––––––––––––––––––––––––––––––––––––––––

Number of tracks: 5
Official DR value: DR10

Samplerate: 192000 Hz
Channels: 2
Bits per sample: 24
Bitrate: 5350 kbps
Codec: FLAC
================================================================================


All thanks go to the original releaser