Kitty, Daisy & Lewis - Superscope (2017) [Official Digital Download]

Posted By: Pisulik
Kitty, Daisy & Lewis - Superscope (2017) [Official Digital Download]

Kitty, Daisy & Lewis - Superscope (2017)
FLAC (tracks) 24-bit/44.1 kHz | Time - 34:07 minutes | 422 mb
Studio Master, Official Digital Download | Artwork: Front cover

London-based siblings Kitty,Daisy & Lewis release their new album Superscope through Sunday Best Recordings. The trio follow 2015's Kitty, Daisy & Lewis The Third, with the new ten track album that sees the multi-instrumentalist band maintain their hands on approach as they write, produce and make sparkling analogue productions. Superscope continues to harness their ability to create pop-infused soul, blues, rock n roll and more mixing up genres to perfection emerging with their musical armoury.

Tracklist:

01. You're So Fine
02. The Game Is On
03. Team Strong
04. Slave
05. Black Van
06. Love Me So
07. Down On My Knees
08. Just One Kiss
09. Whole Lot of Love
10. Broccoli Tempura

foobar2000 1.3.7 / Dynamic Range Meter 1.1.1
log date: 2018-04-16 06:44:47

––––––––––––––––––––––––––––––––––––––––
Analyzed: Kitty, Daisy & Lewis / Superscope
––––––––––––––––––––––––––––––––––––––––

DR Peak RMS Duration Track
––––––––––––––––––––––––––––––––––––––––
DR5 -0.01 dB -6.52 dB 3:22 01-You're So Fine
DR7 -0.01 dB -8.35 dB 3:33 02-The Game Is On
DR5 -0.01 dB -7.38 dB 4:02 03-Team Strong
DR6 -0.01 dB -7.72 dB 3:57 04-Slave
DR5 -0.01 dB -6.03 dB 4:16 05-Black Van
DR8 -0.01 dB -9.54 dB 4:09 06-Love Me So
DR5 -0.01 dB -6.22 dB 2:40 07-Down On My Knees
DR5 -0.01 dB -7.24 dB 2:33 08-Just One Kiss
DR6 -0.01 dB -7.58 dB 2:48 09-Whole Lot of Love
DR7 -0.01 dB -7.53 dB 2:50 10-Broccoli Tempura
––––––––––––––––––––––––––––––––––––––––

Number of tracks: 10
Official DR value: DR6

Samplerate: 44100 Hz
Channels: 2
Bits per sample: 24
Bitrate: 1741 kbps
Codec: FLAC
================================================================================



All thanks go to the original releaser