Kitty, Daisy & Lewis - The Third (2015) [Official Digital Download]

Posted By: Pisulik
Kitty, Daisy & Lewis - The Third (2015) [Official Digital Download]

Kitty, Daisy & Lewis - The Third (2015)
FLAC (tracks) 24-bit/192 kHz | Time - 43:09 minutes | 542 MB
Studio Master, Official Digital Download | Artwork: Front cover

Having sold over a quarter of a million albums worldwide and sold out headline tours, London siblings Kitty Daisy & Lewis return with their new album, Kitty, Daisy & Lewis The Third. Produced by Mick Jones of The Clash in a new 16 track analogue studio in a derelict Indian restaurant in Camden Town, the band take their third album to another level, with the songwriting, instrumentation, styles, production and sound.

With three different writers and multi-instrumentalists in the band, their songs are an eclectic mix up of Pop, R’n'B & Blues, Psychedelic Rock, Soul, Country, Jazz and Ska. Embracing a spread of influences from blues to disco, but always sounding unmistakably Kitty Daisy & Lewis, the stories in this album resonate with moods and melodies that touch you in ways that are both uplifting and unnerving.

Tracklist:

01. Whenever You See Me
02. Baby Bye Bye
03. Feeling Of Wonder feat. Mick Jones
04. No Action
05. Good Looking Woman
06. Turkish Delight
07. It Ain’t Your Business
08. Ain’t Always Better Your Way
09. Never Get Back
10. Bitchin' In The Kitchen
11. Whiskey
12. Developer’s Disease

foobar2000 1.3.7 / Dynamic Range Meter 1.1.1
log date: 2018-04-16 06:28:58

––––––––––––––––––––––––––––––––––––––––
Analyzed: Kitty, Daisy & Lewis / The Third
––––––––––––––––––––––––––––––––––––––––

DR Peak RMS Duration Track
––––––––––––––––––––––––––––––––––––––––
DR6 0.00 dB -6.97 dB 4:00 01-Whenever You See Me
DR7 0.00 dB -8.13 dB 5:12 02-Baby Bye Bye
DR6 0.00 dB -7.26 dB 3:06 03-Feeling Of Wonder feat Mick Jones
DR6 0.00 dB -7.99 dB 4:16 04-No Action
DR7 0.00 dB -8.80 dB 3:11 05-Good Looking Woman
DR7 0.00 dB -8.16 dB 4:10 06-Turkish Delight
DR6 0.00 dB -7.44 dB 2:26 07-It Ain’t Your Business
DR8 0.00 dB -9.02 dB 3:09 08-Ain’t Always Better Your Way
DR7 0.00 dB -10.58 dB 4:50 09-Never Get Back
DR7 0.00 dB -8.73 dB 2:43 10-Bitchin' In The Kitchen
DR6 0.00 dB -8.23 dB 3:43 11-Whiskey
DR10 0.00 dB -12.49 dB 2:29 12-Developer’s Disease
––––––––––––––––––––––––––––––––––––––––

Number of tracks: 12
Official DR value: DR7

Samplerate: 44100 Hz
Channels: 2
Bits per sample: 24
Bitrate: 1657 kbps
Codec: FLAC
================================================================================


All thanks go to the original releaser