Nina Simone - In Concert (1964/2014) [Official Digital Download 24/192]

Posted By: Pisulik
Nina Simone - In Concert (1964/2014) [Official Digital Download 24/192]

Nina Simone - In Concert (1964/2014)
FLAC (tracks) 24-bit/192 kHz | Time - 35:55 minutes | 1,48 GB
Studio Master, Official Digital Download | Artwork: Front cover

This is probably the most personal album that Simone issued during her stay on Philips in the mid-'60s. On most of her studio sessions, she worked with orchestration that either enhanced her vocals tastefully or smothered her, and she tackled an astonishingly wide range of material that, while admirably eclectic, made for uneven listening. Here, the singer and pianist is backed by a spare, jazzy quartet, and some of the songs rank among her most socially conscious declarations of African-American pride: "Old Jim Crow," "Pirate Jenny," "Go Limp," and, especially, "Mississippi Goddam" were some of the most forthright musical reflections of the Civil Rights movement to be found at the time. In a more traditional vein, she also reprises her hit "I Loves You, Porgy" and the jazz ballad "Don't Smoke in Bed."

Tracklist:

01. I Loves You Porgy
02. Plain Gold Ring
03. Pirate Jenny
04. Old Jim Crow
05. Don't Smoke In Bed
06. Go Limp
07. Mississippi Goddam

foobar2000 1.3.7 / Dynamic Range Meter 1.1.1
log date: 2018-01-12 05:40:35

––––––––––––––––––––––––––––––––––––––––
Analyzed: Nina Simone / In Concert
––––––––––––––––––––––––––––––––––––––––

DR Peak RMS Duration Track
––––––––––––––––––––––––––––––––––––––––
DR12 -2.80 dB -19.90 dB 2:33 01-I Loves You Porgy
DR11 0.00 dB -16.04 dB 6:25 02-Plain Gold Ring
DR13 0.00 dB -17.68 dB 6:43 03-Pirate Jenny
DR10 -0.89 dB -13.41 dB 2:42 04-Old Jim Crow
DR11 -0.53 dB -16.29 dB 5:31 05-Don't Smoke In Bed
DR12 0.00 dB -16.17 dB 7:07 06-Go Limp
DR11 0.00 dB -14.64 dB 4:54 07-Mississippi Goddam
––––––––––––––––––––––––––––––––––––––––

Number of tracks: 7
Official DR value: DR11

Samplerate: 192000 Hz
Channels: 2
Bits per sample: 24
Bitrate: 6028 kbps
Codec: FLAC
================================================================================


All thanks go to the original releaser