Subcategories

Portico Quartet - Knee-Deep In The North Sea (2007) [Official Digital Download 24bit/48kHz]

Posted By: tiburon
Portico Quartet - Knee-Deep In The North Sea (2007) [Official Digital Download 24bit/48kHz]

Portico Quartet - Knee-Deep In The North Sea (2007)
FLAC tracks 24bit/48kHz | Front Cover | 495MB + 5% Recovery
Studio Master, Official Digital Download, RealWorld / B&W

On its debut CD, KNEE DEEP IN THE NORTH SEA, Mercury Prize-nominated combo the Portico Quartet delivers an unusually meditative brand of world music-influenced jazz that matches a minimalist classical music vibe with a pop/jam band-informed compositional sense. Centered on repeated figures played on the hang (a type of steel drum) and soprano saxophonist Jack Wylie’s Wayne Shorter-esque improvisational explorations, Portico Quartet’s music should appeal to fans of Weather Report and the Dave Matthews Band alike.
Track List
01. News From Verona 4:24
02. Zavodovski Island 4:22
03. Knee-Deep In The North Sea 4:52
04. Too Many Cooks 5:32
05. Steps In The Wrong Direction 6:09
06. Monsoon: Top To Bottom 4:14
07. The Kon Tiki Expedition 4:29
08. Cittàgazze 4:47
09. Pompidou 12:02

musicians
Milo Fitzpatrick - double bass
Duncan Bellamy - drums, Idiophone
Nick Mulvey - Idiophone
Jack Wyllie - sax

Produced by Portico Quartet


––––––––––––––––––––––––––––––––––––––––
Analyzed: Portico Quartet / Knee-Deep In The North Sea
––––––––––––––––––––––––––––––––––––––––

DR Peak RMS Duration Track
––––––––––––––––––––––––––––––––––––––––
DR13 0.00 dB -15.89 dB 4:23 01-News From Verona
DR15 -0.21 dB -18.25 dB 4:25 02-Zavodovski Island
DR11 0.00 dB -15.06 dB 4:47 03-Knee-Deep In The North Sea
DR12 -1.01 dB -17.23 dB 5:37 04-Too Many Cooks
DR13 -0.06 dB -17.76 dB 6:15 05-Steps In The Wrong Direction
DR14 -0.26 dB -17.43 dB 4:15 06-Monsoon: Top To Bottom
DR12 -2.35 dB -18.10 dB 4:33 07-The Kon Tiki Expedition
DR13 -0.02 dB -16.65 dB 4:44 08-Cittàgazze
DR11 -0.77 dB -15.47 dB 3:16 09-Pompidou
––––––––––––––––––––––––––––––––––––––––

Number of tracks: 9
Official DR value: DR13

Samplerate: 48000 Hz
Channels: 2
Bits per sample: 24
Bitrate: 1431 kbps
Codec: FLAC
================================================================================


Thanks to the original customer