Simon Callaghan, BBC Scottish Symphony Orchestra & Ben Gernon - Rheinberger & Scholz: Piano Concertos (2018) [24/96]

Posted By: SERTiL
Simon Callaghan, BBC Scottish Symphony Orchestra & Ben Gernon - Rheinberger & Scholz: Piano Concertos (2018) [24/96]

Simon Callaghan, BBC Scottish Symphony Orchestra & Ben Gernon - Rheinberger & Scholz: Piano Concertos (2018)
FLAC (tracks) 24-bit/96 kHz | Time - 71:12 minutes | 1.16 GB
Studio Master, Official Digital Download | Artwork: Digital Booklet

Just what the Romantic Piano Concerto series does best: three works unlikely to be encountered in the concert hall, in performances by artists who wholeheartedly—and justifiably—believe in the music. The high expectations of this series are amply realized in volume seventy-six.



Tracklist:

Rheinberger: Piano Concerto in A Flat, Op. 94
01 - 1. Moderato
02 - 2. Adagio patetico
03 - 3. Allegro energico

Scholz: Piano Concerto in B, Op. 57
04 - 1. Allegro moderato
05 - 2. Andante, quasi adagio
06 - 3. Allegro

Scholz
07 - Capriccio for Piano & Orchestra, Op. 35

Personnel:
Simon Callaghan (piano)
BBC Scottish Symphony Orchestra
Ben Gernon (conductor)

foobar2000 1.3.7 / Dynamic Range Meter 1.1.1
log date: 2018-07-12 11:31:12

––––––––––––––––––––––––––––––––––––––––
Analyzed: Simon Callaghan; Ben Gernon: BBC Scottish Symphony Orchestra / Rheinberger & Scholz: Piano Concertos
––––––––––––––––––––––––––––––––––––––––

DR Peak RMS Duration Track
––––––––––––––––––––––––––––––––––––––––
DR14 -0.11 dB -19.44 dB 13:33 01-Rheinberger: Piano Concerto in A flat major, Op 94 - 1: Moderato
DR16 -0.71 dB -23.27 dB 6:33 02-Rheinberger: Piano Concerto in A flat major, Op 94 - 2: Adagio patetico
DR14 -0.58 dB -19.52 dB 10:18 03-Rheinberger: Piano Concerto in A flat major, Op 94 - 3: Finale: Allegro energico
DR14 -0.70 dB -20.90 dB 11:55 04-Scholz: Piano Concerto in B major, Op 57 - 1: Allegro moderato
DR14 -4.86 dB -25.84 dB 8:45 05-Scholz: Piano Concerto in B major, Op 57 - 2: Andante, quasi adagio
DR13 -0.37 dB -19.85 dB 8:11 06-Scholz: Piano Concerto in B major, Op 57 - 3: Allegro
DR16 -1.30 dB -22.90 dB 11:59 07-Scholz: Capriccio for piano and orchestra, Op 35
––––––––––––––––––––––––––––––––––––––––

Number of tracks: 7
Official DR value: DR15

Samplerate: 96000 Hz
Channels: 2
Bits per sample: 24
Bitrate: 2279 kbps
Codec: FLAC
================================================================================


Thanks to the Original customer.