Rick Astley - Beautiful Life (2018) [Official Digital Download]

Posted By: pyatak
Rick Astley - Beautiful Life (2018) [Official Digital Download]

Rick Astley - Beautiful Life (2018) [Official Digital Download]
FLAC (tracks) 24-bit/44.1 kHz | Front Cover | Time - 42:42 minutes | 507 MB
Pop | Label: BMG Rights Management, Official Digital Download

Eighties pop icon Rick Astley follows up his 2016 number one album, 50, with a new 12-track long-player Beautiful Life.

Beautiful Life is Rick's most personal album. “In the midst of all this madness, I just went back into my little home studio because that is what I love to do. I was tinkering about with bits and pieces and before you know it, I was making a new record.”

Similar to Platinum certified album 50, which is also published by BMG, Rick wrote, produced, and played all the instruments on Beautiful Life.

TRACKLIST

1. Beautiful Life
2. Chance to Dance
3. She Makes Me
4. Shivers
5. Last Night on Earth
6. Every Corner
7. I Need the Light
8. Better Together
9. Empty Heart
10. Rise Up
11. Try
12. The Good Old Days

foobar2000 1.3.16 / Dynamic Range Meter 1.1.1
log date: 2018-07-12 15:08:21

––––––––––––––––––––––––––––––––––––––––
Analyzed: Rick Astley / Beautiful Life
––––––––––––––––––––––––––––––––––––––––

DR Peak RMS Duration Track
––––––––––––––––––––––––––––––––––––––––
DR4 0.00 dB -5.45 dB 3:44 01-Beautiful Life
DR6 0.00 dB -6.90 dB 3:12 02-Chance to Dance
DR5 0.00 dB -6.79 dB 3:35 03-She Makes Me
DR5 0.00 dB -7.41 dB 3:39 04-Shivers
DR6 0.00 dB -8.21 dB 3:38 05-Last Night on Earth
DR6 0.00 dB -8.12 dB 3:25 06-Every Corner
DR6 0.00 dB -8.41 dB 3:05 07-I Need the Light
DR7 0.00 dB -8.31 dB 3:13 08-Better Together
DR6 0.00 dB -7.03 dB 4:15 09-Empty Heart
DR7 0.00 dB -8.75 dB 3:15 10-Rise Up
DR5 0.00 dB -7.42 dB 3:55 11-Try
DR6 0.00 dB -7.58 dB 3:48 12-The Good Old Days
––––––––––––––––––––––––––––––––––––––––

Number of tracks: 12
Official DR value: DR6

Samplerate: 44100 Hz
Channels: 2
Bits per sample: 24
Bitrate: 1632 kbps
Codec: FLAC
================================================================================