Shauli Einav Quartet - Beam Me Up (2016) [Official Digital Download 24bit/96kHz]

Posted By: tiburon
Shauli Einav Quartet - Beam Me Up (2016) [Official Digital Download 24bit/96kHz]

Shauli Einav Quartet - Beam Me Up (2016)
FLAC tracks 24bit/96kHz | Front Cover | 909MB + 5% Recovery
Studio Master, Official Digital Download, Berthold Records

In its latest CD Beam Me Up the Shauli Einav Quartet produces an impressive sound, rich in creative musical ideas. These talented, award winning musicians: Shauli Einav - saxophone, Paul Lay - piano, Florent Nisse – double bass and Gautier Garrigue – drums have recorded a remarkable album that is multi-layered, tuneful, energetic and swinging.
Track List
1. 1415
2. Tao Main
3. Assai
4. Dolce Gustav
5. Ten Weeks
6. Beam Me Up
7. 76 San Gabriel

musicians
Shauli Einav - tenor & soprano saxophones
Paul Lay - piano, Fender Rhodes
Florent Nisse - double bass
Gautier Garrigue - drums
Pierre Durand - guitar on 7


––––––––––––––––––––––––––––––––––––––––
Analyzed: Shauli Einav Quartet / Beam Me Up
––––––––––––––––––––––––––––––––––––––––

DR Peak RMS Duration Track
––––––––––––––––––––––––––––––––––––––––
DR7 -0.06 dB -9.45 dB 7:22 01-1415
DR7 -0.06 dB -8.75 dB 6:36 02-Tao Main
DR12 -0.06 dB -15.60 dB 6:17 03-Assai
DR9 -0.06 dB -11.79 dB 6:06 04-Dolce Gustav
DR9 -0.06 dB -12.60 dB 5:22 05-Ten Weeks
DR9 -0.06 dB -11.51 dB 4:59 06-Beam Me Up
DR10 -0.06 dB -13.25 dB 4:01 07-76 San Gabriel
––––––––––––––––––––––––––––––––––––––––

Number of tracks: 7
Official DR value: DR9

Samplerate: 96000 Hz
Channels: 2
Bits per sample: 24
Bitrate: 2713 kbps
Codec: FLAC
================================================================================


Thanks to the original customer