Soul Asylum - Live from Liberty Lunch, Austin, TX, December 3, 1992 (2018) [Official Digital Download 24/192]

Posted By: Pisulik
Soul Asylum - Live from Liberty Lunch, Austin, TX, December 3, 1992 (2018) [Official Digital Download 24/192]

Soul Asylum - Live from Liberty Lunch, Austin, TX, December 3, 1992 (2018)
FLAC (tracks) 24-bit/192 kHz | Time - 70:37 minutes | 2,83 GB
Studio Master, Official Digital Download | Artwork: Front cover

The previously unreleased performance of the American rock band Soul Asylum, recorded in the legendary Liberty Lunch live performance venue in Austin, just a few months after the release of their breakthrough album "Grave Dancers Union".

Tracklist:

01. Without a Trace (Live)
02. All the King's Friends (Live)
03. Sometime to Return (Live)
04. Veil of Tears (Live)
05. Get On Out (Live)
06. Runaway Train (Live)
07. Black Gold (Live)
08. Cartoon (Live)
09. Somebody to Shove (Live)
10. Nice Guys (Don't Get Paid) (Live)
11. April Fool (Live)
12. To Sir with Love (Live)
13. Gullibles Travels (Live)
14. Cry to Me (Live)
15. Keep It Up (Live)
16. 99% (Live)
17. Closer to the Stars (Live)

foobar2000 1.3.7 / Dynamic Range Meter 1.1.1
log date: 2018-05-16 04:59:50

––––––––––––––––––––––––––––––––––––––––
Analyzed: Soul Asylum / Live from Liberty Lunch, Austin, TX, December 3, 1992
––––––––––––––––––––––––––––––––––––––––

DR Peak RMS Duration Track
––––––––––––––––––––––––––––––––––––––––
DR8 -0.02 dB -9.75 dB 4:08 01-Without a Trace (Live)
DR8 -0.02 dB -8.73 dB 3:08 02-All the King's Friends (Live)
DR8 -0.02 dB -8.50 dB 3:41 03-Sometime to Return (Live)
DR8 -0.02 dB -9.10 dB 4:13 04-Veil of Tears (Live)
DR8 -0.02 dB -9.91 dB 4:10 05-Get On Out (Live)
DR8 -0.02 dB -9.84 dB 4:35 06-Runaway Train (Live)
DR8 -0.02 dB -11.00 dB 4:06 07-Black Gold (Live)
DR8 -0.02 dB -9.00 dB 4:09 08-Cartoon (Live)
DR8 -0.02 dB -9.14 dB 3:37 09-Somebody to Shove (Live)
DR9 -0.02 dB -11.30 dB 5:10 10-Nice Guys (Don't Get Paid) (Live)
DR8 -0.02 dB -11.03 dB 4:54 11-April Fool (Live)
DR8 -0.02 dB -10.53 dB 3:10 12-To Sir with Love (Live)
DR8 -0.02 dB -9.58 dB 4:55 13-Gullibles Travels (Live)
DR10 -0.02 dB -12.72 dB 5:22 14-Cry to Me (Live)
DR8 -0.02 dB -9.85 dB 4:27 15-Keep It Up (Live)
DR9 -0.02 dB -9.62 dB 3:49 16-99% (Live)
DR8 -0.02 dB -9.11 dB 3:11 17-Closer to the Stars (Live)
––––––––––––––––––––––––––––––––––––––––

Number of tracks: 17
Official DR value: DR8

Samplerate: 192000 Hz
Channels: 2
Bits per sample: 24
Bitrate: 5776 kbps
Codec: FLAC
================================================================================


All thanks go to the original releaser