Jonathan Plowright - Suk: Piano Music (2018) [Official Digital Download 24/96]

Posted By: SERTiL
Jonathan Plowright - Suk: Piano Music (2018) [Official Digital Download 24/96]

Jonathan Plowright - Suk: Piano Music (2018)
FLAC (tracks) 24-bit/96 kHz | Time - 76:24 minutes | 1.20 GB
Studio Master, Official Digital Download | Artwork: Digital Booklet

The early works of Josef Suk channel something of the same life-affirming Czech spirit also characteristic of Dvořák, his teacher and father-in-law. Jonathan Plowright makes a persuasive case for a composer whose music is at last emerging from the shadows.

Tracklist:

Spring Op. 22a
1. Spring
2. The breeze
3. Awaiting
4. ***
5. Longing

Summer impressions Op. 22b
6. At noon
7. Children at play
8. Evening mood

Piano pieces Op. 7
9. Song of love
10. Humoresque
11. Recollections
12. Idyll 1
13. Idyll 2
14. Dumka
15. Capriccietto

Moods Op. 10
16. Legend
17. Capriccio
18. Romance
19. Bagatelle
20. Spring idyll

foobar2000 1.3.7 / Dynamic Range Meter 1.1.1
log date: 2018-07-11 22:56:52

––––––––––––––––––––––––––––––––––––––––
Analyzed: Jonathan Plowright / Suk: Piano Music
––––––––––––––––––––––––––––––––––––––––

DR Peak RMS Duration Track
––––––––––––––––––––––––––––––––––––––––
DR14 -0.93 dB -21.18 dB 4:39 01-Suk: Jaro 'Spring', Op 22a - No 1 Spring: Jaro: Allegro con brio
DR14 -11.37 dB -31.85 dB 2:04 02-Suk: Jaro 'Spring', Op 22a - No 2 The breeze: Vánek: Andante, quasi allegretto
DR14 -4.75 dB -24.20 dB 4:12 03-Suk: Jaro 'Spring', Op 22a - No 3 Awaiting: V očekávání: Andante con moto ed espressivo
DR15 -5.28 dB -27.73 dB 2:06 04-Suk: Jaro 'Spring', Op 22a - No 4: ***: Andante
DR12 -2.86 dB -21.69 dB 3:34 05-Suk: Jaro 'Spring', Op 22a - No 5 Longing: V roztoužení: Allegro non troppo
DR14 -5.43 dB -27.62 dB 4:38 06-Suk: Letní dojmy 'Summer impressions', Op 22b - No 1 At noon: V poledne: Moderato
DR13 -5.66 dB -23.97 dB 2:21 07-Suk: Letní dojmy 'Summer impressions', Op 22b - No 2 Children at play: Hra dětí: Allegretto
DR15 -3.17 dB -25.06 dB 6:31 08-Suk: Letní dojmy 'Summer impressions', Op 22b - No 3 Evening mood: Večerní nálada: Andante espressivo
DR15 -0.74 dB -23.81 dB 6:43 09-Suk: Klavírní skladby 'Piano pieces', Op 7 - No 1 Song of love: Píseň lásky: Allegro non troppo lento
DR13 -7.94 dB -28.98 dB 1:35 10-Suk: Klavírní skladby 'Piano pieces', Op 7 - No 2 Humoresque: Humoreska: Allegretto grazioso
DR13 -3.19 dB -22.03 dB 3:34 11-Suk: Klavírní skladby 'Piano pieces', Op 7 - No 3 Recollections: Vzpomínky: Andante con moto quasi improvisando
DR13 -9.43 dB -30.67 dB 2:22 12-Suk: Klavírní skladby 'Piano pieces', Op 7 - No 4 Idylls 1: Idyla: Moderato
DR13 -5.65 dB -26.45 dB 3:36 13-Suk: Klavírní skladby 'Piano pieces', Op 7 - No 4 Idylls 2: Idyla: Tempo comodo
DR15 -1.32 dB -24.52 dB 5:28 14-Suk: Klavírní skladby 'Piano pieces', Op 7 - No 5: Dumka: Andante
DR12 -3.86 dB -24.76 dB 2:11 15-Suk: Klavírní skladby 'Piano pieces', Op 7 - No 6: Capriccietto: Allegro assai
DR14 -2.58 dB -22.58 dB 7:12 16-Suk: Nálady 'Moods', Op 10 - No 1 Legend: Legenda: Andante espressivo
DR16 -4.26 dB -27.50 dB 3:29 17-Suk: Nálady 'Moods', Op 10 - No 2: Capriccio: Allegro ma non troppo
DR14 -4.92 dB -25.78 dB 3:07 18-Suk: Nálady 'Moods', Op 10 - No 3 Romance: Romance: Andante con moto
DR14 -12.28 dB -32.48 dB 3:07 19-Suk: Nálady 'Moods', Op 10 - No 4 Bagatelle: Bagatela: Moderato
DR13 -2.77 dB -22.65 dB 4:03 20-Suk: Nálady 'Moods', Op 10 - No 5 Spring idyll: Jarní idyla: Vivace
––––––––––––––––––––––––––––––––––––––––

Number of tracks: 20
Official DR value: DR14

Samplerate: 96000 Hz
Channels: 2
Bits per sample: 24
Bitrate: 2249 kbps
Codec: FLAC
================================================================================


Thanks to the Original customer.