Skip Martin & The Video All-Stars - TV Jazz Themes (Remastered from the Original Somerset Tapes) (2017/2018) [24/96]

Posted By: SERTiL
Skip Martin & The Video All-Stars - TV Jazz Themes (Remastered from the Original Somerset Tapes) (2017/2018) [24/96]

Skip Martin & The Video All-Stars - TV Jazz Themes (Remastered from the Original Somerset Tapes) (2017/2018)
FLAC (tracks) 24-bit/96 kHz | Time - 35:03 minutes | 717 MB
Studio Master, Official Digital Download | Artwork: Front Cover

1950's television shows are featured on this album. Skip Martin conducts the Video All-Stars Band and plays the theme songs from PETER GUNN, RICHARD DIAMOND, 77 SUNSET STRIP AND THE THIN MAN. How's that for nostalgia. Recorded in Stereo. Releases in the late 1950's.

First Session: Gus Bivona, Paul Horn, Bob Copper, Red Mitchell, Jimmy Rowles, Gene Sherry, Pete Terry, Joe Triscari, Dick Nash, Frank Rosolino, George Roberts, Jimmy McGee, Joe Howard and Jules Jacob.

Second Session: Shelly Manne, Al Henderickson, Gus Bivona, Paul Horn, Red Mitchell, Bob Cooper, Pete Terry, Joe Triscari, Jules Jacob, Ray Linn, Gene Estes, Don Fagerquist, Jimmy Salko, Joe Howard, Dick Nash, Frank Rosolino, George Roberts, Larry Bunker, Jimmy Rowles, Vince Terri, Pete Candoli, Gene Sherry, Jimmy Mcgee, Conrad Gozzo, Frank Beach and Irv Cottler.

Tracklist:
1. Peter Gunn Theme 02:09
2. Session at Pete's Pad 03:38
3. The Brothers Go to Mother's 02:50
4. Soft Sounds 03:32
5. Fallout! 03:43
6. Dreamsville 03:46
7. Richard Diamond Theme 04:44
8. 77 Sunset Strip 05:17
9. The Thin Man 05:24

Digitally remastered

foobar2000 1.3.7 / Dynamic Range Meter 1.1.1
log date: 2018-04-16 22:39:10

––––––––––––––––––––––––––––––––––––––––
Analyzed: Skip Martin & The Video All-Stars / TV Jazz Themes (Remastered from the Original Somerset Tapes)
––––––––––––––––––––––––––––––––––––––––

DR Peak RMS Duration Track
––––––––––––––––––––––––––––––––––––––––
DR12 -1.00 dB -17.00 dB 2:09 01-Peter Gunn Theme
DR12 -1.00 dB -19.05 dB 3:38 02-Session at Pete's Pad
DR13 -1.00 dB -17.05 dB 2:50 03-The Brothers Go to Mother's
DR15 -1.00 dB -18.49 dB 3:32 04-Soft Sounds
DR11 -1.00 dB -17.23 dB 3:43 05-Fallout!
DR12 -1.00 dB -17.51 dB 3:46 06-Dreamsville
DR13 -1.00 dB -17.98 dB 4:44 07-Richard Diamond Theme
DR14 -1.00 dB -20.54 dB 5:18 08-77 Sunset Strip
DR12 -1.00 dB -18.11 dB 5:24 09-The Thin Man
––––––––––––––––––––––––––––––––––––––––

Number of tracks: 9
Official DR value: DR13

Samplerate: 96000 Hz
Channels: 2
Bits per sample: 24
Bitrate: 2825 kbps
Codec: FLAC
================================================================================


Thanks to the Original customer.