The Rolling Stones - From the Vault: No Security - San Jose 1999 (2018) [Official Digital Download]

Posted By: pyatak
The Rolling Stones - From the Vault: No Security - San Jose 1999 (2018) [Official Digital Download]

The Rolling Stones - From the Vault: No Security - San Jose 1999 (2018) [Official Digital Download]
FLAC (tracks) 24-bit/48 kHz | Front Cover | Time - 01:50:14 minutes | 1,42 GB
Classic Rock, Blues Rock | Label: Eagle Rock Entertainment Ltd., Official Digital Download

The Rolling Stones have announced a new entry in their From the Vault series: No Security - San Jose 1999 collects the closing date of the band's 1999 American tour on DVD, Blu-ray, DVD and two CDs, three LPs and digital formats.

As the press release announcing the set notes, the band performed two shows in the California city that it first played in 1965. More than 33,000 people saw the shows, which included songs from their most recent album, 1997's Bridges to Babylon, along with the usual bunch of classics, like concert opener "Jumpin' Jack Flash," "Brown Sugar" and "Sympathy for the Devil."

The San Jose shows follow other live DVDs and CDs in the band's From the Vault series, which collects performances from the Stones' tours over the years. Other titles include dates from 1971 (The Marquee Club), 1975 (L.A. Forum) and 1982 (Live in Leeds).

TRACKLIST

1. "Jumpin’ Jack Flash"
2. "Bitch"
3. "You Got Me Rocking"
4. "Respectable"
5. "Honky Tonk Woman"
6. "I Got the Blues"
7. "Saint of Me"
8. "Some Girls"
9. "Paint It Black"
10. "You Got the Silver"
11. "Before They Make Me Run"
12. "Out of Control"
13. "Route 66"
14. "Get Off of My Cloud"
15. "Midnight Rambler"
16. "Tumbling Dice"
17. "It’s Only Rock ‘n’ Roll (But I Like It)"
18. "Start Me Up"
19. "Brown Sugar"
20. "Sympathy for the Devil"


foobar2000 1.3.16 / Dynamic Range Meter 1.1.1
log date: 2018-07-12 16:22:55

––––––––––––––––––––––––––––––––––––––––
Analyzed: The Rolling Stones / From The Vault: No Security - San Jose 1999 (Live)
––––––––––––––––––––––––––––––––––––––––

DR Peak RMS Duration Track
––––––––––––––––––––––––––––––––––––––––
DR6 0.00 dB -6.97 dB 3:47 01-Jumpin’ Jack Flash (Live)
DR6 0.00 dB -7.12 dB 5:03 02-Bitch (Live)
DR7 0.00 dB -8.18 dB 3:49 03-You Got Me Rocking (Live)
DR6 0.00 dB -7.34 dB 3:44 04-Respectable (Live)
DR7 0.00 dB -8.27 dB 4:50 05-Honky Tonk Women (Live)
DR9 0.00 dB -10.28 dB 3:47 06-I Got The Blues (Live)
DR7 0.00 dB -8.09 dB 5:48 07-Saint Of Me (Live)
DR7 0.00 dB -7.97 dB 5:06 08-Some Girls (Live)
DR6 0.00 dB -9.01 dB 8:59 09-Paint It Black (Live)
DR9 0.00 dB -11.44 dB 4:40 10-You Got The Silver (Live)
DR6 0.00 dB -6.94 dB 3:55 11-Before They Make Me Run (Live)
DR6 0.00 dB -7.47 dB 7:20 12-Out Of Control (Live)
DR7 0.00 dB -8.14 dB 3:14 13-Route 66 (Live)
DR7 0.00 dB -7.94 dB 3:18 14-Get Off Of My Cloud (Live)
DR7 0.00 dB -9.06 dB 12:14 15-Midnight Rambler (Live)
DR7 0.00 dB -8.38 dB 4:38 16-Tumbling Dice (Live)
DR7 0.00 dB -8.29 dB 5:36 17-It's Only Rock 'n Roll (Live)
DR7 0.00 dB -7.71 dB 4:05 18-Start Me Up (Live)
DR7 0.00 dB -7.75 dB 7:41 19-Brown Sugar (Live)
DR7 0.00 dB -8.86 dB 8:53 20-Sympathy For The Devil (Live)
––––––––––––––––––––––––––––––––––––––––

Number of tracks: 20
Official DR value: DR7

Samplerate: 48000 Hz
Channels: 2
Bits per sample: 24
Bitrate: 1866 kbps
Codec: FLAC
================================================================================