The Velvet Underground - The Velvet Underground (45th Anniversary Super Deluxe) (1969/2014) [Official Digital Download 24/96]

Posted By: Pisulik
The Velvet Underground - The Velvet Underground (45th Anniversary Super Deluxe) (1969/2014) [Official Digital Download 24/96]

The Velvet Underground - The Velvet Underground (45th Anniversary Super Deluxe Edition) (1969/2014)
FLAC (tracks) 24-bit/96 kHz | Time - 317:48 minutes | 6,16 GB
Studio Master, Official Digital Download | Artwork: Front cover

The Velvet Underground’s classic self-titled third album, released in March 1969, by MGM, was a departure from the band’s first two albums in more ways than one. Gone was co-founding member John Cale, and in his place was a 21-year-old with Long Island roots named Doug Yule, who stepped right in. The record was also a stylistic leap, as Lou Reed describes it in Rolling Stone editor David Fricke’s liner notes, “I thought we had to demonstrate the other side of us. Fricke calls it “a stunning turnaround… 10 tracks of mostly warm, explicit sympathy and optimism, expressed with melodic clarity, set in gleaming double-guitar jangle and near-whispered balladry. Or as the late rock critic Lester Bangs put it, “How do you define a group like this, who moved from ‘Heroin’ to ‘Jesus’ in two short years?”

How indeed do you describe an album which includes such classics as “Candy Says,” Reed’s ode to Warhol superstar Candy Darling; the aching love song “Pale Blue Eyes,” allegedly inspired by a girlfriend at Syracuse University who got away, with lead vocals by Yule; the inspiring “Beginning to See The Light”; the spoken-word narrative and musique concrete of “The Murder Mystery,” and the beautiful Maureen Tucker-sung “After Hours”?

Celebrating its enduring longevity, Polydor/Universal Music Enterprises (UMe) has released The Velvet Underground – 45th Anniversary Super Deluxe Edition. This 63-track, six-CD package is housed in a case-bound book and features several different mixes including the remastered stereo mix by MGM house engineer Luis Pastor “Val” Valentin, a set of 1969 recordings, many of which were previously unreleased, from the Record Plant in New York City that were supposed to be the band’s fourth album, several of which ended up on Loaded and Reed’s first two solo releases, and unreleased live recordings from The Matrix in 1969.

The remastered Valentin stereo mix of The Velvet Underground will also be made available as a single-disc CD, on vinyl, and as part of the two-CD Deluxe Edition version with a 12-track audio bonus disc featuring the best of Live At The Matrix, taped on November 26 & 27, 1969. Digital versions of both the single disc “Valentin mix” and the six-CD, Super Deluxe Edition will also be available through other digital partners including MFiT and HD Audio formats.

The Velvet Underground was the first album produced and arranged by the band themselves. Disc One of this collection contains the album stereo mix by MGM house engineer Luis Pastor “Val” Valentin, a veteran of sessions for Ella Fitzgerald and Stan Getz, recorded at T.T.G. Studios in Hollywood, while the band was staying at the Chateau Marmont. The second disc features what Sterling Morrison dubbed “The Closet Mix,” which Reed described as a way to “get directly to somebody, unfiltered… So, if you listen to the record, it’s like sitting across from you.” This was the original version on the 1969 pressings of the album, later replaced by yet another Val Valentin stereo mix. The third disc features “the promotional mono mix” of the album, including a mono version of the first single, “What Goes On” b/w “Jesus.”

The fourth disc in the set offers a version of the never-to-be-released fourth album, recorded in October 1969 at the Record Plant in New York City, and intended to get the band out of its contract with MGM. The sessions include 10 previously unheard mixes – four original 1969 vintage mixes and six new mixes, including 2014 mixes of “Lisa Says” and “I Can’t Stand It,” and the original 1969 mix of “Ocean,” which eventually were re-recorded for Lou Reed’s 1972 self-titled solo debut. Also included are the original 1969 mixes of “Andy’s Chest,” which appeared in a different version on Transformer, and “Rock & Roll,” redone for Loaded.

The last two discs feature performances by the Velvets from their stay at San Francisco’s The Matrix, owned by Jefferson Airplane’s Marty Balin, on November 26 and 27, 1969. These performances are, for the first time, compiled and mixed from the legendary, original 1969 multi-track recordings made by club manager Peter Abram and now owned by the Velvet Underground. Tracks include a nearly 37-minute-long “Sister Ray” and a version of “There She Goes Again,” interpolating the opening guitar quote from Marvin Gaye’s 1962 hit, “Hitch Hike.”

Newest member Doug Yule describes the year best to Fricke in his liner notes, pointing to the band’s “cohesiveness and creativity and just great music. We were feeling good. All we had to do was play. And it showed. That comes out in a band. You get tight, and you get creative.”

Tracklist:

CD1 The Val Valentin Mix

01. Candy Says
02. What Goes On
03. Some Kinda Love
04. Pale Blue Eyes
05. Jesus
06. Beginning To See The Light
07. I'm Set Free
08. That's The Story Of My Life
09. The Murder Mystery
10. After Hours

foobar2000 1.3.7 / Dynamic Range Meter 1.1.1
log date: 2017-12-26 12:20:04

––––––––––––––––––––––––––––––––––––––––
Analyzed: The Velvet Underground / The Velvet Underground (45th Anniversary Super Deluxe Edition)
––––––––––––––––––––––––––––––––––––––––

DR Peak RMS Duration Track
––––––––––––––––––––––––––––––––––––––––
DR9 -2.00 dB -14.44 dB 4:04 01-Candy Says
DR9 -1.26 dB -11.83 dB 4:54 02-What Goes On
DR11 -1.86 dB -14.72 dB 4:03 03-Some Kinda Love
DR11 -1.27 dB -15.34 dB 5:40 04-Pale Blue Eyes
DR10 -1.26 dB -15.49 dB 3:24 05-Jesus
DR9 -1.25 dB -11.54 dB 4:40 06-Beginning To See The Light
DR11 -1.22 dB -15.49 dB 4:04 07-I'm Set Free
DR10 -1.24 dB -13.03 dB 2:04 08-That's The Story Of My Life
DR10 -1.25 dB -14.12 dB 8:55 09-The Murder Mystery
DR10 -2.08 dB -14.72 dB 2:07 10-After Hours
––––––––––––––––––––––––––––––––––––––––

Number of tracks: 10
Official DR value: DR10

Samplerate: 96000 Hz
Channels: 2
Bits per sample: 24
Bitrate: 3010 kbps
Codec: FLAC
================================================================================


CD2 The Closet Mix

01. Candy Says
02. What Goes On
03. Some Kinda Love
04. Pale Blue Eyes
05. Jesus
06. Beginning To See The Light
07. I'm Set Free
08. That's The Story Of My Life
09. The Murder Mystery
10. After Hours
11. Beginning To See The Light (Alternate "Closet Mix")

foobar2000 1.3.7 / Dynamic Range Meter 1.1.1
log date: 2017-12-26 12:26:17

––––––––––––––––––––––––––––––––––––––––
Analyzed: The Velvet Underground / The Velvet Underground (45th Anniversary Super Deluxe Edition)
––––––––––––––––––––––––––––––––––––––––

DR Peak RMS Duration Track
––––––––––––––––––––––––––––––––––––––––
DR10 -2.16 dB -15.47 dB 4:04 01-Candy Says (Closet Mix)
DR11 -1.27 dB -13.91 dB 4:35 02-What Goes On (Closet Mix)
DR12 -1.22 dB -16.16 dB 3:40 03-Some Kinda Love (Closet Mix)
DR13 -1.25 dB -15.17 dB 5:43 04-Pale Blue Eyes (Closet Mix)
DR11 -1.26 dB -16.22 dB 3:24 05-Jesus (Closet Mix)
DR10 -1.56 dB -13.44 dB 4:44 06-Beginning To See The Light (Closet Mix)
DR11 -1.11 dB -14.99 dB 4:05 07-I'm Set Free (Closet Mix)
DR9 -1.13 dB -12.03 dB 2:04 08-That's The Story Of My Life (Closet Mix)
DR12 -1.26 dB -16.28 dB 8:54 09-The Murder Mystery (Closet Mix)
DR12 -1.99 dB -17.77 dB 2:10 10-After Hours (Closet Mix)
DR10 -1.25 dB -13.21 dB 4:44 11-Beginning To See The Light (Alternate Closet Mix)
––––––––––––––––––––––––––––––––––––––––

Number of tracks: 11
Official DR value: DR11

Samplerate: 96000 Hz
Channels: 2
Bits per sample: 24
Bitrate: 3119 kbps
Codec: FLAC
================================================================================


CD3 Promotional Mono Mix

01. Candy Says
02. What Goes On
03. Some Kinda Love
04. Pale Blue Eyes
05. Jesus
06. Beginning To See The Light
07. I'm Set Free
08. That's The Story Of My Life
09. The Murder Mystery
10. After Hours
11. What Goes On
12. Jesus

foobar2000 1.3.7 / Dynamic Range Meter 1.1.1
log date: 2017-12-26 12:31:14

––––––––––––––––––––––––––––––––––––––––
Analyzed: The Velvet Underground / The Velvet Underground (45th Anniversary Super Deluxe Edition)
––––––––––––––––––––––––––––––––––––––––

DR Peak RMS Duration Track
––––––––––––––––––––––––––––––––––––––––
DR9 -1.28 dB -13.68 dB 4:04 01-Candy Says (Mono Version)
DR9 -1.26 dB -12.80 dB 4:35 02-What Goes On (Mono Version)
DR13 -1.26 dB -16.51 dB 3:39 03-Some Kinda Love (Mono Version)
DR12 -1.26 dB -14.47 dB 5:41 04-Pale Blue Eyes (Mono Version)
DR12 -1.41 dB -17.22 dB 3:23 05-Jesus (Mono Version)
DR10 -1.27 dB -12.78 dB 4:47 06-Beginning To See The Light (Mono Version)
DR9 -1.25 dB -12.56 dB 4:06 07-I'm Set Free (Mono Version)
DR9 -1.25 dB -13.23 dB 2:05 08-That's The Story Of My Life (Mono Version)
DR11 -1.26 dB -14.20 dB 8:55 09-The Murder Mystery (Mono Version)
DR13 -3.07 dB -17.51 dB 2:11 10-After Hours (Mono Single)
DR10 -1.77 dB -13.81 dB 2:35 11-What Goes On (Mono Single)
DR12 -1.27 dB -17.33 dB 3:20 12-Jesus (Mono Single)
––––––––––––––––––––––––––––––––––––––––

Number of tracks: 12
Official DR value: DR11

Samplerate: 96000 Hz
Channels: 2
Bits per sample: 24
Bitrate: 1497 kbps
Codec: FLAC
================================================================================


CD4 1969 Sessions

01. Foggy Notion (Original 1969 Mix)
02. One Of These Days (New 2014 Mix)
03. Lisa Says (New 2014 Mix)
04. I'm Sticking With You (Original 1969 Mix)
05. Andy's Chest (Original 1969 Mix)
06. Coney Island Steeplechase (New 2014 Mix)
07. Ocean (Original 1969 Mix)
08. I Can't Stand It (New 2014 Mix)
09. She's My Best Friend (Original 1969 Mix)
10. We're Gonna Have A Real Good Time Together (New 2014 Mix)
11. I'm Gonna Move Right In (Original 1969 Mix)
12. Ferryboat Bill (Original 1969 Mix)
13. Rock & Roll (Original 1969 Mix)

foobar2000 1.3.7 / Dynamic Range Meter 1.1.1
log date: 2017-12-26 12:37:31

––––––––––––––––––––––––––––––––––––––––
Analyzed: The Velvet Underground / The Velvet Underground (45th Anniversary Super Deluxe Edition)
––––––––––––––––––––––––––––––––––––––––

DR Peak RMS Duration Track
––––––––––––––––––––––––––––––––––––––––
DR10 -0.80 dB -13.28 dB 6:59 01-Foggy Notion (Original 1969 Mix)
DR10 -2.04 dB -14.06 dB 4:10 02-One Of These Days (New 2014 Mix)
DR12 -0.87 dB -16.28 dB 3:00 03-Lisa Says (New 2014 Mix)
DR9 -1.96 dB -17.21 dB 2:25 04-I'm Sticking With You (Original 1969 Mix)
DR10 -1.21 dB -13.09 dB 2:56 05-Andy's Chest (Original 1969 Mix)
DR11 -0.24 dB -13.20 dB 2:33 06-Coney Island Steeplechase (New 2014 Mix)
DR9 -1.84 dB -14.19 dB 5:14 07-Ocean (Original 1969 Mix)
DR12 -0.18 dB -13.47 dB 3:27 08-I Can't Stand It (New 2014 Mix)
DR10 -1.19 dB -13.08 dB 3:07 09-She's My Best Friend (Original 1969 Mix)
DR10 -0.18 dB -12.09 dB 2:56 10-We're Gonna Have A Real Good Time Together (New 2014 Mix)
DR11 -0.17 dB -13.72 dB 6:33 11-I'm Gonna Move Right In (Original 1969 Mix)
DR8 -2.83 dB -13.56 dB 2:13 12-Ferryboat Bill (Original 1969 Mix)
DR9 -2.47 dB -14.56 dB 5:15 13-Rock & Roll (Original 1969 Mix)
––––––––––––––––––––––––––––––––––––––––

Number of tracks: 13
Official DR value: DR10

Samplerate: 96000 Hz
Channels: 2
Bits per sample: 24
Bitrate: 3059 kbps
Codec: FLAC
================================================================================


CD 5: LIVE AT THE MATRIX – November 26 & 27, 1969 (Part 1)

01. I'm Waiting For The Man
02. What Goes On
03. Some Kinda Love
04. Over You
05. We're Gonna Have A Real Good Time Together
06. Beginning To See The Light
07. Lisa Says
08. Rock & Roll
09. Pale Blue Eyes
10. I Can't Stand It Anymore
11. Venus In Furs
12. There She Goes Again

foobar2000 1.3.7 / Dynamic Range Meter 1.1.1
log date: 2017-12-26 12:44:25

––––––––––––––––––––––––––––––––––––––––
Analyzed: The Velvet Underground / The Velvet Underground (45th Anniversary Super Deluxe Edition)
––––––––––––––––––––––––––––––––––––––––

DR Peak RMS Duration Track
––––––––––––––––––––––––––––––––––––––––
DR10 -2.93 dB -15.03 dB 5:30 01-I'm Waiting For The Man (Live In San Francisco 1969)
DR12 -0.10 dB -13.16 dB 4:34 02-What Goes On (Live In San Francisco 1969)
DR12 -1.28 dB -16.98 dB 4:03 03-Some Kinda Love (Live In San Francisco 1969)
DR11 -2.14 dB -15.82 dB 3:02 04-Over You (Live In San Francisco 1969)
DR11 -1.53 dB -13.52 dB 3:25 05-We're Gonna Have A Real Good Time Together (Live In San Francisco 1969)
DR11 -0.72 dB -13.54 dB 5:37 06-Beginning To See The Light (Live In San Francisco 1969)
DR11 -1.65 dB -15.72 dB 6:00 07-Lisa Says (Live In San Francisco 1969)
DR10 -2.96 dB -14.90 dB 6:54 08-Rock & Roll (Live In San Francisco 1969)
DR11 -2.82 dB -16.73 dB 6:05 09-Pale Blue Eyes (Live In San Francisco 1969)
DR11 -0.53 dB -14.91 dB 6:52 10-I Can't Stand It Anymore (Live In San Francisco 1969)
DR12 -0.10 dB -15.02 dB 4:37 11-Venus In Furs (Live In San Francisco 1969)
DR10 -1.76 dB -13.31 dB 3:15 12-There She Goes Again (Live In San Francisco 1969)
––––––––––––––––––––––––––––––––––––––––

Number of tracks: 12
Official DR value: DR11

Samplerate: 96000 Hz
Channels: 2
Bits per sample: 24
Bitrate: 3126 kbps
Codec: FLAC
================================================================================


CD 6: LIVE AT THE MATRIX – November 26 & 27, 1969 (Part 2)

01. Sister Ray
02. Heroin
03. White Light/White Heat
04. I'm Set Free
05. After Hours
06. Sweet Jane

foobar2000 1.3.7 / Dynamic Range Meter 1.1.1
log date: 2017-12-26 12:51:15

––––––––––––––––––––––––––––––––––––––––
Analyzed: The Velvet Underground / The Velvet Underground (45th Anniversary Super Deluxe Edition)
––––––––––––––––––––––––––––––––––––––––

DR Peak RMS Duration Track
––––––––––––––––––––––––––––––––––––––––
DR12 -0.10 dB -14.91 dB 36:53 01-Sister Ray (Live In San Francisco 1969)
DR12 -0.10 dB -16.02 dB 8:14 02-Heroin (Live In San Francisco 1969)
DR11 -0.10 dB -14.01 dB 8:42 03-White Light White Heat (Live In San Francisco 1969)
DR10 -0.62 dB -14.70 dB 4:46 04-I'm Set Free (Live In San Francisco 1969)
DR12 -2.17 dB -19.46 dB 2:56 05-After Hours (Live In San Francisco 1969)
DR12 -0.75 dB -16.47 dB 4:17 06-Sweet Jane (Live In San Francisco 1969)
––––––––––––––––––––––––––––––––––––––––

Number of tracks: 6
Official DR value: DR12

Samplerate: 96000 Hz
Channels: 2
Bits per sample: 24
Bitrate: 3025 kbps
Codec: FLAC
================================================================================


All thanks go to the original releaser