Caroline Goulding & David Fung - Tippet Rise OPUS 2017: Daydreams (2018) [Official Digital Download 24/96]

Posted By: SERTiL
Caroline Goulding & David Fung - Tippet Rise OPUS 2017: Daydreams (2018) [Official Digital Download 24/96]

Caroline Goulding & David Fung - Tippet Rise OPUS 2017: Daydreams (2018)
FLAC (tracks) 24-bit/96 kHz | Time - 76:48 minutes | 1.19 GB
Studio Master, Official Digital Download | Artwork: Digital Booklet

Tippet Rise OPUS 2017 is the second compilation album to emerge from the summer music season at Montana’s Tippet Rise Arts Center, which features performance spaces of acoustic perfection amidst a sculpture-laden terrain of awe-inspiring beauty, nestled against a backdrop of the Beartooth Mountains near Yellowstone National Park.

In this whimsical, imaginary world, composers open a visionary portal to the past and future. In the jazz-infused FIRST CLUB DATE, a world premiere by Aaron Jay Kernis and a Tippet Rise commission, cellist Matt Haimovitz and pianist Andrea Lam illuminate the musical playground of a boy on the cusp of manhood. The new work is dedicated to Haimovitz and the composer’s cellist-son Jonah, with double-entendre movement titles like “Puppy Love” and “Matt’s Monkish Machinations.” Violinist Caroline Goulding and pianist David Fung embody the youthful spirit of George Enescu’s Impressions from Childhood. An epic expansiveness saturates Red Arc / Blue Veil by John Luther Adams, featuring electronics and a wide array of sounds from pianist Vicky Chow and percussionist Doug Perkins. Opening the album is Jeffrey Kahane’s hopeful America the Beautiful, performed on piano by the composer himself, while works by Chopin and Bach, performed by pianists Yevgeny Sudbin and Anne-Marie McDermott, anchor the program with their sheer beauty and virtuosity.

Tracklist:
1. Jeffrey Kahane – America the Beautiful (03:55)
2. Matt Haimovitz & Andrea Lam – First Club Date: I. Prelude to a Pizz. (04:35)
3. Matt Haimovitz & Andrea Lam – First Club Date: II. Puppy Love (04:54)
4. Matt Haimovitz & Andrea Lam – First Club Date: III. Matt's Monkish Machinations (03:04)
5. Matt Haimovitz & Andrea Lam – First Club Date: IV. Elevating the Standard (07:16)
6. Matt Haimovitz & Andrea Lam – First Club Date: V. Jonah's Jive Jump (06:11)
7. Anne-Marie McDermott – English Suite No. 2 in A Minor, BWV 807: I. Prélude (04:14)
8. Jessica Sindell – Image, Op. 38 (05:09)
9. Caroline Goulding – Impressions d'enfance, Op. 28: No. 1, Ménétrier (03:08)
10. Caroline Goulding & David Fung – Impressions d'enfance, Op. 28: No. 2, Vieux mendiant (02:47)
11. Caroline Goulding & David Fung – Impressions d'enfance, Op. 28: No. 3, Ruisselet au fond du jardin (02:29)
12. Caroline Goulding & David Fung – Impressions d'enfance, Op. 28: No. 4, L'oiseau au cage et le coucou au mur (02:19)
13. Caroline Goulding & David Fung – Impressions d'enfance, Op. 28: No. 5, Chanson pour bercer (01:31)
14. Caroline Goulding & David Fung – Impressions d'enfance, Op. 28: No. 6, Grillon (00:22)
15. Caroline Goulding & David Fung – Impressions d'enfance, Op. 28: No. 7, Lune à travers les vitres (02:10)
16. Caroline Goulding – Impressions d'enfance, Op. 28: No. 8, Vent dans la cheminée (00:22)
17. Caroline Goulding & David Fung – Impressions d'enfance, Op. 28: No. 9, Tempête au dehors, dans la nuit (02:05)
18. Caroline Goulding & David Fung – Impressions d'enfance, Op. 28: No. 10, Lever de soleil (03:31)
19. Yevgeny Sudbin – Variations on the Minute Waltz (04:12)
20. Vicky Chow & Doug Perkins – Red Arc/Blue Veil (12:34)

foobar2000 1.3.7 / Dynamic Range Meter 1.1.1
log date: 2018-06-14 11:45:50

––––––––––––––––––––––––––––––––––––––––
Analyzed: Caroline Goulding & David Fung / Tippet Rise OPUS 2017: Daydreams
––––––––––––––––––––––––––––––––––––––––

DR Peak RMS Duration Track
––––––––––––––––––––––––––––––––––––––––
DR15 -1.46 dB -23.66 dB 3:56 01-America the Beautiful
DR16 0.00 dB -20.42 dB 4:36 02-First Club Date: I. Prelude to a Pizz.
DR16 -1.43 dB -23.29 dB 4:55 03-First Club Date: II. Puppy Love
DR15 -0.79 dB -23.93 dB 3:04 04-First Club Date: III. Matt's Monkish Machinations
DR14 -3.71 dB -26.25 dB 7:17 05-First Club Date: IV. Elevating the Standard
DR14 -4.20 dB -23.87 dB 6:11 06-First Club Date: V. Jonah's Jive Jump
DR12 -4.47 dB -21.34 dB 4:15 07-English Suite No. 2 in A Minor, BWV 807: I. Prélude
DR14 -6.06 dB -26.81 dB 5:09 08-Image, Op. 38
DR14 -6.67 dB -25.73 dB 3:09 09-Impressions d'enfance, Op. 28: No. 1, Ménétrier
DR14 -8.32 dB -28.18 dB 2:47 10-Impressions d'enfance, Op. 28: No. 2, Vieux mendiant
DR12 -5.05 dB -25.80 dB 2:29 11-Impressions d'enfance, Op. 28: No. 3, Ruisselet au fond du jardin
DR15 -6.63 dB -29.82 dB 2:20 12-Impressions d'enfance, Op. 28: No. 4, L'oiseau au cage et le coucou au mur
DR12 -10.12 dB -26.65 dB 1:32 13-Impressions d'enfance, Op. 28: No. 5, Chanson pour bercer
DR10 -11.81 dB -25.60 dB 0:22 14-Impressions d'enfance, Op. 28: No. 6, Grillon
DR13 -5.74 dB -23.83 dB 2:11 15-Impressions d'enfance, Op. 28: No. 7, Lune à travers les vitres
DR13 -12.55 dB -30.28 dB 0:22 16-Impressions d'enfance, Op. 28: No. 8, Vent dans la cheminée
DR13 -0.50 dB -19.08 dB 2:06 17-Impressions d'enfance, Op. 28: No. 9, Tempête au dehors, dans la nuit
DR13 -0.22 dB -17.43 dB 3:31 18-Impressions d'enfance, Op. 28: No. 10, Lever de soleil
DR13 -2.23 dB -19.50 dB 4:13 19-Variations on the Minute Waltz
DR12 -3.64 dB -20.80 dB 12:34 20-Red Arc / Blue Veil
––––––––––––––––––––––––––––––––––––––––

Number of tracks: 20
Official DR value: DR14

Samplerate: 96000 Hz
Channels: 2
Bits per sample: 24
Bitrate: 2240 kbps
Codec: FLAC
================================================================================


Thanks to the Original customer.