Joe Satriani - What Happens Next (2018) [Official Digital Download 24/96]

Posted By: SERTiL
Joe Satriani - What Happens Next (2018) [Official Digital Download 24/96]

Joe Satriani - What Happens Next (2018)
FLAC (tracks) 24-bit/96 kHz | Time - 51:17 minutes | 1.11 GB
Studio Master, Official Digital Download | Artwork: Front Cover

Joe Satriani's 16th studio album is What Happens Next, a high-energy album that takes the legendary guitarist s skills to exciting new heights.

The new instrumental album features a power trio of Satriani on guitar along with two Rock and Roll Hall of Fame inductees: Deep Purple/Black Country Communion bassist Glenn Hughes and Red Hot Chili Peppers drummer Chad Smith, the latter reuniting with Satriani for the first time since their work in the supergroup Chickenfoot with former Van Halen vocalist and bassist Sammy Hagar and Michael Anthony. This unparalleled rock rhythm section gives What Happens Next a depth of groove that sets it apart from Satriani's other work.

Satriani once again teams up with producer/engineer/mixer Mike Fraser on What Happens Next. Fraser has recorded and mixed every AC/DC album since 1990 s The Razors Edge and has been a frequent collaborator with Satriani since the release of Crystal Planet in 1998, producing, engineering or mixing Satriani's solo albums as well as both studio projects by Chickenfoot.

This 12-track album showcases Satriani s gift for constant evolution and reinvention as a bandleader and composer of intricate guitar-driven rock. What Happens Next finds Satriani discovering sounds and textures never before heard from an instrument he has unquestionably mastered over his three-decade solo career.

1. Energy 3:28
2. Catbot 3:38
3. Thunder High on the Mountain 4:46
4. Cherry Blossoms 4:29
5. Righteous 3:34
6. Smooth Soul 3:51
7. Headrush 3:35
8. Looper 3:43
9. What Happens Next 4:24
10. Super Funky Badass 7:35
11. Invisible 4:11
12. Forever and Ever 4:06

Joe Satriani, guitar
Glenn Hughes, bass
Chad Smith, drums

Produced by Mike Fraser

foobar2000 1.3.7 / Dynamic Range Meter 1.1.1
log date: 2018-01-12 03:31:12

Analyzed: Joe Satriani / What Happens Next

DR Peak RMS Duration Track
DR7 -0.07 dB -7.93 dB 3:28 01-Energy
DR7 -0.03 dB -8.61 dB 3:39 02-Catbot
DR7 -0.05 dB -7.94 dB 4:47 03-Thunder High on the Mountain
DR6 -0.09 dB -8.32 dB 4:29 04-Cherry Blossoms
DR8 -0.09 dB -9.14 dB 3:35 05-Righteous
DR8 -0.08 dB -8.84 dB 3:51 06-Smooth Soul
DR7 -0.08 dB -8.26 dB 3:35 07-Headrush
DR8 -0.09 dB -9.05 dB 3:44 08-Looper
DR6 -0.07 dB -8.02 dB 4:24 09-What Happens Next
DR7 -0.09 dB -8.33 dB 7:36 10-Super Funky Badass
DR7 -0.03 dB -8.56 dB 4:11 11-Invisible
DR7 -0.08 dB -9.20 dB 4:05 12-Forever and Ever

Number of tracks: 12
Official DR value: DR7

Samplerate: 96000 Hz
Channels: 2
Bits per sample: 24
Bitrate: 3010 kbps
Codec: FLAC

Thanks to the Original customer.