Saténik Khourdoïan & Alexander Gurning - Ysaÿe, Fauré & Saint-Saëns (2018) [Official Digital Download 24/96]

Posted By: SERTiL
Saténik Khourdoïan & Alexander Gurning - Ysaÿe, Fauré & Saint-Saëns (2018) [Official Digital Download 24/96]

Saténik Khourdoïan & Alexander Gurning - Ysaÿe, Fauré & Saint-Saëns (2018)
FLAC (tracks) 24-bit/96 kHz | Time - 55:01 minutes | 0.99 GB
Studio Master, Official Digital Download | Artwork: Digital Booklet

For his first recording Saténik Khourdoian, concertmaster of the Orchestre symphonique de la Monnaie and an enthusiastic and passionate violinist, joins forces with the gifted pianist Alexander Gurning, who has received numerous awards for his qualities as a chamber music performer. Fauré and Saint-Saëns found in Ysaÿe a virtuoso performer and an exceptional ally in getting their music known, who was on friendly terms with both men and was also a composer himself. They often played together in Paris, notably at the concerts of the Société nationale, and in the Brussels salons of the XX and the Libre Esthétique.

Tracklist:
1. Poème élégiaque pour violon et piano, Op. 12 12:43
2. Extase, Op. 21 09:22
3. Sonate pour violon et piano en La Majeur, Op. 13 No. 1: I. Allegro molto 08:40
4. Sonate pour violon et piano en La Majeur, Op. 13 No. 1: II. Andante 06:59
5. Sonate pour violon et piano en La Majeur, Op. 13 No. 1: III. Allegro vivo 04:01
6. Sonate pour violon et piano en La Majeur, Op. 13 No. 1: IV. Allegro quasi presto 05:03
7. Caprice d'après l'Étude en forme de valse, Op. 52 No. 6 de Camille Saint-Saëns 08:13

Composers:
Fauré, Gabriel Urbain (1845-1924)
Saint-Saëns, Charles Camille (1835-1921)
Ysaÿe, Eugene (1858-1931)

Personnel:
Saténik Khourdoian, violin
Alexander Gurning, piano

foobar2000 1.3.7 / Dynamic Range Meter 1.1.1
log date: 2018-04-15 21:17:30

––––––––––––––––––––––––––––––––––––––––
Analyzed: Saténik Khourdoïan & Alexander Gurning / Ysaÿe, Fauré & Saint-Saëns
––––––––––––––––––––––––––––––––––––––––

DR Peak RMS Duration Track
––––––––––––––––––––––––––––––––––––––––
DR11 -0.26 dB -16.68 dB 12:43 01-Poeme elegiaque pour violon et piano, Op. 12
DR11 -0.26 dB -16.29 dB 9:23 02-Extase, Op. 21
DR11 -0.26 dB -15.64 dB 8:40 03-Sonate pour violon et piano en La Majeur, Op. 13 No. 1: I. Allegro molto
DR13 -0.26 dB -19.51 dB 7:00 04-Sonate pour violon et piano en La Majeur, Op. 13 No. 1: II. Andante
DR14 -0.26 dB -18.90 dB 4:01 05-Sonate pour violon et piano en La Majeur, Op. 13 No. 1: III. Allegro vivo
DR10 -0.26 dB -15.67 dB 5:03 06-Sonate pour violon et piano en La Majeur, Op. 13 No. 1: IV. Allegro quasi presto
DR11 -0.26 dB -15.81 dB 8:13 07-Caprice d'apres l'Etude en forme de valse, Op. 52 No. 6 de Camille Saint-Saens
––––––––––––––––––––––––––––––––––––––––

Number of tracks: 7
Official DR value: DR11

Samplerate: 96000 Hz
Channels: 2
Bits per sample: 24
Bitrate: 2656 kbps
Codec: FLAC
================================================================================


Thanks to the Original customer.