Claudio Abbado, Chamber Orchestra Of Europe - Mozart: Don Giovanni (1998) [Reissue 2004] 3x MCH PS3 ISO + Hi-Res FLAC

Posted By: HDAtall
Claudio Abbado, Chamber Orchestra Of Europe - Mozart: Don Giovanni (1998) [Reissue 2004] 3x MCH PS3 ISO + Hi-Res FLAC

Claudio Abbado, Chamber Orchestra Of Europe - Mozart: Don Giovanni (1998) [Reissue 2004]
PS3 Rip | 3x SACD ISO | DST64 2.0 & 5.1 > 1-bit/2.8224 MHz | 165:23 minutes | Front/Rear cover | 12,2 GB
or FLAC 2.0 Stereo (converted with foobar2000 to tracks) 24bit/88,2 kHz | Front/Rear cover | 3,04 GB
Features Stereo and Multichannel Surround Sound | Deutsche Grammophon # 474996-2

Arguably the greatest opera ever written, the Mozart/Da Ponte depiction of the last twenty-four hours of the legendary libertine is performed here in the standard version combining the two versions Mozart prepared. Abbado offers modern instruments with certain nods to period performance practice–many appoggiaturas, comparatively fleet tempos, and some modest ornamentation.

This new Don Giovanni with Claudio Abbado conducting the Chamber Orchestra of Europe is Abbado’s second recording of a Mozart opera for Deutsche Grammophon. It was made in Ferrara in conjunction with performances of the opera early in 1997 with the Chamber Orchestra of Europe. The cast features Bryn Terfel in one of his most famous stage roles as Leporello, singing alongside the young British baritone Simon Keenlyside as Don Giovanni. Terfel made his role debut as Leporello in the Patrice Chereau production of the opera in Salzburg. The Welsh singer’s performances of Leporello, together with Figaro, have been repeated highlights of the Salzburg Festival since then. No single adjective can encapsulate the power of Terfel’s stage presence in these roles. In addition to perfect singing and impeccable Italian in the recitatives, he brings the role of Leporello an ambiguous and sometimes menacing energy which threatens to subvert the traditional presuppositions of the master-servant relation.

The cast is stronger on the male side but there are no weak links. The three baritones are especially strong. Keenlyside offers a sexy, dangerous Don. Terfel, completing his traversal of the three baritone roles, is a saturnine, bitter Leporello while D'Arcangelo is a Masetto to be reckoned with. Heilmann offers a sweet-toned Ottavio who nevertheless cannot manage the famous run without a breath. Salminen is a cavernous Commendatore. The women reverse the usual casting of Anna and Elvira, with Anna possessing the lighter voice. Isokowski is a powerful Elvira, a woman to be taken very seriously. Once the ear adjusts to the lack of steel, Reminfio is a fine Anna, like Callas and Moser phrasing the reprise of "Non mi dir" in a single span. Pace is a conventional Zerlina countering the recent trend to cast her as a mezzo.

Tracklist

Disc 1:
01. Ouvertura
02. (No. 1 Introduzione) Notte E Giorno Faticar
03. (Recitativo) Leporello, Ove Sei?
04. (Recitativo) Ah! Del Padre In Periglio
05. Fuggi, Crudele, Fuggi!
06. (Recitativo) Orsù, Spicciati Presto
07. (No. 3 Aria) Ah! Chi Mi Dice Mai
08. (Recitativo) Chi è Là? / Stelle! Che Vedo!
09. (No. 4 Aria) Madamina, Il Catalogo È Questo
10. (Recitativo) In Questa Forma, Dunque
11. (No. 5 Coro) Giovinette Che Fate All'amore
12. (Recitativo) Manco Male È Partita
13. (No. 6 Aria) Ho Capito, Signor Sì
14. (Recitativo) Alfin Siam Liberati
15. (No. 7 Duettino) Là Ci Darem La Mano
16. (Recitativo) Fermati, Scellerato
17. (No. 8 Aria) Ah, Fuggi Il Traditor
18. (Recitativo) Mi Par Ch'Oggi Il Demonio Si Diverta
19. (No. 9 Quartetto) Non Ti Fidar, O Misera
20. (Recitativo) Povera Sventurata!
21. (No. 10 Recitativo Accompagnato Ed Aria) Don Ottavio, Son Morta!
22. Or Sai Chi L'Onore
23. (Recitativo) Come Mai Creder Deggio
24. (No. 10a Aria) Dalla Sua Pace

Disc 2:
01. (Recitativo) Io Deggio Ad Ogni Patto
02. (No. 11 Aria) Fin Ch'Han Dal Vino
03. (Recitativo) Masetto: Senti Un Po'!
04. (No. 12 Aria) Batti, Batti, O Bel Masetto
05. (Recitativo) Guarda Un Po'
06. (No. 13 Finale) Presto Presto Pria Ch'Ei Venga
07. Tra Quest'Arbori Celata
08. Bisogna Aver Coraggio
09. Riposate, Vezzose Ragazze!
10. (No. 14 Duetto) Eh Via, Buffone
11. (Recitativo) Leporello / Signore
12. (No. 15 Terzetto) Ah! Taci, Ingiusto Core
13. (Recitativo) Amico, Che Ti Par?
14. (No. 16 Canzonetta) Deh, Vieni Alla Finestra
15. (Recitativo) V'è Gente Alla Finestra
16. (No. 17 Aria) Metà Di Voi Qua Vadano
17. (Recitativo) Zitto! Lascia Ch'Io Senta
18. (No. 18 Aria) Vedrai, Carino
19. (Recitativo) Di Molte Faci Il Lume
20. (No. 19 Sestetto) Sola, Sola, In Buio Loco
21. (Recitativo) Dunque Quello Sei Tu
22. (No. 20 Aria) Ah, Pietà, Signori Miei
23. (Recitativo) Ferma, Perfido, Ferma
24. (No. 21a Aria) Il Mio Tesoro Intanto

Disc 3:
01. (No. 21b Recitativo Accompagnato ed Aria) In Quali Eccessi, O Numi
02. Mi Tradì Quell'Alma Ingrata
03. (Recitativo) Ah, Ah, Ah, Ah, Questa È Buona
04. (No. 22 Duetto) O Statua Gentilissima
05. (Recitativo) Calmatevi, Idol Mio
06. (No. 23 Recitativo Accompagnato e Rondo) Crudele! - Ah No, Mio Bene!
07. Non Mi Dir, Bell'Idol Mio
08. (Recitativo) Ah, Si Segua Il Suo Passo
09. (No. 24 Finale) Già La Mensa È Preparata
10. L'Ultima Prova Dell'Amor Mio
11. Don Giovanni, A Cenar Teco M'Invitasti
12. Ah! Dove È Il Perfido

Recorded January/February 1997 at the Teatro Communale, Ferrara.

Performers
Don Giovanni: Simon Keenlyside (Baritone)
Donna Anna: Carmela Remigio (Soprano)
Donna Elvira: Soile Isokoski (Soprano)
Zerlina: Patrizia Pace (Soprano)
Don Ottavio: Uwe Heilmann (Tenor)
Leporello: Bryn Terfel (Baritone)
Masetto: Ildebrando d’Arcangelo (Bass)
Commendatore: Matti Salminen (Tenor)
+
Ferrara Musica Chorus
Chamber Orchestra of Europe
Claudio Abbado: Conductor

foobar2000 1.3.17 / Dynamic Range Meter 1.1.1

––––––––––––––––––––––––––––––––––––––––
Analyzed: Keenlyside,Salminen,Remigio,Heilmann,Isokoski,Terfel,D'Arcangelo,Pace,Chamber Orchestra of Europe,Abbado / Mozart: Don Giovanni
––––––––––––––––––––––––––––––––––––––––

DR Peak RMS Duration Track
––––––––––––––––––––––––––––––––––––––––
DR14 -11.93 dB -35.14 dB 5:54 01-Ouvertura
DR15 -7.46 dB -34.36 dB 5:26 02-Notte e giorno faticar
DR15 -19.89 dB -47.96 dB 0:36 03-Leporello, ove sei?
DR15 -11.83 dB -37.86 dB 2:42 04-Ah! del padre
DR14 -11.33 dB -34.65 dB 3:57 05-Fuggi, crudele
DR16 -10.69 dB -40.23 dB 1:40 06-Orsщ, spicciati
DR14 -9.77 dB -35.07 dB 3:36 07-Ah! chi mi dice
DR14 -14.17 dB -39.62 dB 2:58 08-Chi и lа?/Stelle!
DR14 -10.97 dB -35.63 dB 5:38 09-Madamina, il catalogo
DR12 -18.74 dB -40.04 dB 0:32 10-In questa forma
DR12 -14.47 dB -35.90 dB 1:29 11-Giovinette che fate
DR16 -12.52 dB -40.07 dB 2:17 12-Manco male и partita
DR15 -8.78 dB -37.25 dB 1:35 13-Ho capito
DR15 -16.93 dB -42.53 dB 2:02 14-Alfin siam liberati
DR13 -14.06 dB -35.91 dB 2:55 15-Lа ci darem
DR12 -15.88 dB -38.60 dB 0:44 16-Fermati, scellerato
DR12 -8.93 dB -33.26 dB 1:10 17-Ah, fuggi
DR14 -16.81 dB -41.95 dB 1:14 18-Mi par ch'oggi
DR14 -10.98 dB -36.23 dB 3:59 19-Non ti fidar
DR13 -22.37 dB -45.42 dB 0:23 20-Povera sventurata!
DR14 -9.47 dB -34.55 dB 3:06 21-Don Ottavio, son morta!
DR13 -9.81 dB -31.76 dB 2:38 22-Or sai chi l'onore
DR14 -21.32 dB -45.96 dB 0:35 23-Come mai creder
DR13 -16.21 dB -38.72 dB 4:22 24-Dalla sua pace
––––––––––––––––––––––––––––––––––––––––

Number of tracks: 24
Official DR value: DR14

Samplerate: 2822400 Hz / PCM Samplerate: 88200 Hz
Channels: 6
Bits per sample: 1
Bitrate: 16934 kbps
Codec: DST64
================================================================================

––––––––––––––––––––––––––––––––––––––––
Analyzed: Keenlyside,Salminen,Remigio,Heilmann,Isokoski,Terfel,D'Arcangelo,Pace,Chamber Orchestra of Europe,Abbado / Mozart: Don Giovanni
––––––––––––––––––––––––––––––––––––––––

DR Peak RMS Duration Track
––––––––––––––––––––––––––––––––––––––––
DR15 -14.17 dB -40.23 dB 1:48 01-Io deggio ad ogni patto
DR14 -6.28 dB -32.23 dB 1:21 02-Fin ch'han dal vino
DR15 -14.00 dB -42.57 dB 1:11 03-Masetto, senti
DR13 -16.63 dB -38.32 dB 3:31 04-Batti, batti, o bel Masetto
DR15 -12.49 dB -43.01 dB 0:36 05-Guarda un po'
DR14 -8.98 dB -34.73 dB 1:56 06-Presto presto
DR13 -14.09 dB -37.27 dB 2:18 07-Tra quest'arbori
DR12 -16.03 dB -37.39 dB 3:46 08-Bisogna aver coraggio
DR14 -8.20 dB -32.17 dB 8:32 09-Riposate, vezzose ragazze
DR14 -10.73 dB -34.92 dB 1:04 10-Eh via, buffone
DR15 -14.96 dB -42.99 dB 2:04 11-Leporello/Signore
DR13 -12.92 dB -36.62 dB 4:31 12-Ah! taci
DR15 -11.02 dB -38.88 dB 2:07 13-Amico, che ti par?
DR14 -16.90 dB -41.92 dB 2:05 14-Deh, vieni alla finestra
DR16 -14.45 dB -42.21 dB 1:16 15-V'и gente
DR14 -14.19 dB -38.08 dB 2:47 16-Metа di voi
DR18 -9.70 dB -41.25 dB 2:05 17-Zitto! Lascia ch'io
DR13 -13.55 dB -37.78 dB 3:22 18-Vedrai, carino
DR11 -18.15 dB -44.51 dB 0:33 19-Di molte faci
DR15 -9.22 dB -34.27 dB 7:21 20-Sola, sola
DR13 -17.14 dB -40.87 dB 0:23 21-Dunque quello sei tu
DR14 -12.12 dB -37.70 dB 1:46 22-Ah, pietа
DR12 -18.27 dB -42.50 dB 0:45 23-Ferma, perfido
DR13 -14.71 dB -36.52 dB 4:06 24-Il mio tesoro
––––––––––––––––––––––––––––––––––––––––

Number of tracks: 24
Official DR value: DR14

Samplerate: 2822400 Hz / PCM Samplerate: 88200 Hz
Channels: 6
Bits per sample: 1
Bitrate: 16934 kbps
Codec: DST64
================================================================================

––––––––––––––––––––––––––––––––––––––––
Analyzed: Keenlyside,Salminen,Remigio,Heilmann,Isokoski,Terfel,D'Arcangelo,Pace,Chamber Orchestra of Europe,Abbado / Mozart: Don Giovanni
––––––––––––––––––––––––––––––––––––––––

DR Peak RMS Duration Track
––––––––––––––––––––––––––––––––––––––––
DR13 -17.60 dB -39.13 dB 1:55 01-In quali eccessi
DR13 -13.34 dB -35.43 dB 3:55 02-Mi tradм quell'alma
DR17 -11.12 dB -42.81 dB 4:30 03-Ah, questa и buona
DR17 -7.42 dB -38.01 dB 3:34 04-O statua gentilissima
DR14 -18.28 dB -43.10 dB 0:58 05-Calmatevi, idol mio
DR14 -14.32 dB -39.63 dB 1:44 06-Crudele! - Ah, no
DR15 -7.77 dB -35.13 dB 5:03 07-Non mi dir
DR11 -22.47 dB -45.35 dB 0:19 08-Ah, si segua
DR15 -12.69 dB -38.24 dB 4:20 09-Giа la mensa
DR16 -9.29 dB -33.62 dB 3:21 10-L'ultima prova
DR15 -9.57 dB -32.59 dB 6:40 11-Don Giovanni, a cenar teco
DR15 -7.34 dB -33.59 dB 6:22 12-Ah! dove и
––––––––––––––––––––––––––––––––––––––––

Number of tracks: 12
Official DR value: DR15

Samplerate: 2822400 Hz / PCM Samplerate: 88200 Hz
Channels: 6
Bits per sample: 1
Bitrate: 16934 kbps
Codec: DST64
================================================================================

––––––––––––––––––––––––––––––––––––––––
Analyzed: Keenlyside,Salminen,Remigio,Heilmann,Isokoski,Terfel,D'Arcangelo,Pace,Chamber Orchestra of Europe,Abbado / Mozart: Don Giovanni
––––––––––––––––––––––––––––––––––––––––

DR Peak RMS Duration Track
––––––––––––––––––––––––––––––––––––––––
DR14 -12.67 dB -31.99 dB 5:54 01-Ouvertura
DR16 -8.07 dB -30.82 dB 5:26 02-Notte e giorno faticar
DR17 -20.02 dB -44.55 dB 0:36 03-Leporello, ove sei?
DR15 -11.93 dB -34.45 dB 2:42 04-Ah! del padre
DR15 -11.32 dB -31.06 dB 3:57 05-Fuggi, crudele
DR19 -10.83 dB -36.22 dB 1:40 06-Orsщ, spicciati
DR13 -10.39 dB -31.47 dB 3:36 07-Ah! chi mi dice
DR15 -14.62 dB -35.62 dB 2:58 08-Chi и lа?/Stelle!
DR15 -11.52 dB -31.91 dB 5:38 09-Madamina, il catalogo
DR12 -19.09 dB -36.15 dB 0:32 10-In questa forma
DR13 -14.59 dB -32.42 dB 1:29 11-Giovinette che fate
DR18 -12.21 dB -36.08 dB 2:17 12-Manco male и partita
DR17 -9.05 dB -33.74 dB 1:35 13-Ho capito
DR15 -17.20 dB -38.54 dB 2:02 14-Alfin siam liberati
DR13 -14.52 dB -32.11 dB 2:55 15-Lа ci darem
DR12 -16.03 dB -34.71 dB 0:44 16-Fermati, scellerato
DR11 -8.43 dB -29.37 dB 1:10 17-Ah, fuggi
DR14 -17.90 dB -38.01 dB 1:14 18-Mi par ch'oggi
DR14 -10.86 dB -32.46 dB 3:59 19-Non ti fidar
DR15 -21.75 dB -41.62 dB 0:23 20-Povera sventurata!
DR15 -9.61 dB -30.98 dB 3:06 21-Don Ottavio, son morta!
DR13 -9.98 dB -27.97 dB 2:38 22-Or sai chi l'onore
DR16 -22.28 dB -42.41 dB 0:35 23-Come mai creder
DR12 -16.81 dB -35.37 dB 4:22 24-Dalla sua pace
––––––––––––––––––––––––––––––––––––––––

Number of tracks: 24
Official DR value: DR15

Samplerate: 2822400 Hz / PCM Samplerate: 88200 Hz
Channels: 2
Bits per sample: 1
Bitrate: 5645 kbps
Codec: DST64
================================================================================

––––––––––––––––––––––––––––––––––––––––
Analyzed: Keenlyside,Salminen,Remigio,Heilmann,Isokoski,Terfel,D'Arcangelo,Pace,Chamber Orchestra of Europe,Abbado / Mozart: Don Giovanni
––––––––––––––––––––––––––––––––––––––––

DR Peak RMS Duration Track
––––––––––––––––––––––––––––––––––––––––
DR17 -16.62 dB -38.07 dB 1:48 01-Io deggio ad ogni patto
DR16 -8.62 dB -30.21 dB 1:21 02-Fin ch'han dal vino
DR18 -16.00 dB -40.49 dB 1:11 03-Masetto, senti
DR13 -19.16 dB -36.58 dB 3:31 04-Batti, batti, o bel Masetto
DR17 -14.90 dB -40.96 dB 0:36 05-Guarda un po'
DR15 -11.04 dB -33.09 dB 1:56 06-Presto presto
DR14 -16.21 dB -35.54 dB 2:18 07-Tra quest'arbori
DR12 -18.06 dB -35.28 dB 3:46 08-Bisogna aver coraggio
DR15 -10.48 dB -30.33 dB 8:32 09-Riposate, vezzose ragazze
DR15 -13.56 dB -33.07 dB 1:04 10-Eh via, buffone
DR16 -16.88 dB -40.89 dB 2:04 11-Leporello/Signore
DR14 -15.51 dB -34.72 dB 4:31 12-Ah! taci
DR16 -13.26 dB -36.74 dB 2:07 13-Amico, che ti par?
DR15 -19.55 dB -39.90 dB 2:05 14-Deh, vieni alla finestra
DR17 -16.37 dB -40.11 dB 1:16 15-V'и gente
DR15 -16.47 dB -36.27 dB 2:47 16-Metа di voi
DR21 -11.64 dB -39.22 dB 2:05 17-Zitto! Lascia ch'io
DR13 -15.55 dB -35.99 dB 3:22 18-Vedrai, carino
DR11 -20.99 dB -42.64 dB 0:33 19-Di molte faci
DR15 -11.37 dB -32.61 dB 7:21 20-Sola, sola
DR15 -19.37 dB -38.83 dB 0:23 21-Dunque quello sei tu
DR15 -14.41 dB -35.96 dB 1:46 22-Ah, pietа
DR13 -20.64 dB -40.58 dB 0:45 23-Ferma, perfido
DR14 -17.14 dB -34.81 dB 4:06 24-Il mio tesoro
––––––––––––––––––––––––––––––––––––––––

Number of tracks: 24
Official DR value: DR15

Samplerate: 2822400 Hz / PCM Samplerate: 88200 Hz
Channels: 2
Bits per sample: 1
Bitrate: 5645 kbps
Codec: DST64
================================================================================

––––––––––––––––––––––––––––––––––––––––
Analyzed: Keenlyside,Salminen,Remigio,Heilmann,Isokoski,Terfel,D'Arcangelo,Pace,Chamber Orchestra of Europe,Abbado / Mozart: Don Giovanni
––––––––––––––––––––––––––––––––––––––––

DR Peak RMS Duration Track
––––––––––––––––––––––––––––––––––––––––
DR13 -17.20 dB -35.78 dB 1:55 01-In quali eccessi
DR14 -12.86 dB -31.00 dB 3:55 02-Mi tradм quell'alma
DR20 -11.33 dB -38.86 dB 4:30 03-Ah, questa и buona
DR20 -7.83 dB -34.17 dB 3:34 04-O statua gentilissima
DR15 -19.03 dB -39.36 dB 0:58 05-Calmatevi, idol mio
DR14 -14.76 dB -35.97 dB 1:44 06-Crudele! - Ah, no
DR16 -7.74 dB -31.36 dB 5:03 07-Non mi dir
DR12 -22.71 dB -41.71 dB 0:19 08-Ah, si segua
DR16 -13.14 dB -34.50 dB 4:20 09-Giа la mensa
DR16 -9.59 dB -30.02 dB 3:21 10-L'ultima prova
DR14 -9.54 dB -29.08 dB 6:40 11-Don Giovanni, a cenar teco
DR16 -7.01 dB -30.00 dB 6:22 12-Ah! dove и
––––––––––––––––––––––––––––––––––––––––

Number of tracks: 12
Official DR value: DR15

Samplerate: 2822400 Hz / PCM Samplerate: 88200 Hz
Channels: 2
Bits per sample: 1
Bitrate: 5645 kbps
Codec: DST64


Uncompressed SACD ISO size > 4,34 + 4,33 + 3,02 GB
>