Aki Takase & David Murray - Cherry - Sakura (2017) [Official Digital Download]

Posted By: HDV
Aki Takase & David Murray - Cherry - Sakura (2017) [Official Digital Download]

Aki Takase & David Murray - Cherry / Sakura (2017)
FLAC (tracks) 24-bit/44,1 kHz | Time - 50:48 minutes | 517 MB
Studio Master, Official Digital Download | Artwork: Front cover

Over the years, pianist Aki Takase and reed player David Murray have amassed respective bodies of soul-stirring compositions, of which several pieces related to the rites of passage of middle age are included on Cherry / Sakura. As a result, this is a markedly different conversation than ever before; one that is more profound as the two musicians engage in an unsparing conversation about the defining issues of later life.


More than two decades ago, with “Blue Monk,” Japanese-born pianist Aki Takase and saxophonist David Murray celebrated the indomitable spirit of Thelonious Monk, via four of his compositions and several of their own, among contributions by others. “Let’s Cool One,” the sole Monk tune from the duo’s first pairing since that intimate 1995 album, has the two effectively channeling the spirit of the composer: Murray offers his woody, percussive bass clarinet, opening alone and then sounding the head, and Takase provides bluesy, stride-inflected rejoinders. It’s a joyful, exuberant outing, one of the disc’s highlights. That track is something of an outlier, as the two are up to something completely different on the other compositions, starting with Murray’s gorgeous long tenor notes, undergirded by Takase’s fluttering figures, on the Takase-penned title track. The piece, inspired by a short story centered on the short-lived beauty of cherry blossoms, also features rambunctious unaccompanied sections by each musician. “Nobuko,” Takase’s tribute to her late mother, begins and ends as a stately ballad, enveloping the pianist’s long, free passage. Her “Blues for David” is a laidback ramble, with an unpredictable tenor head. Murray offers three compositions, starting with the warm, slow-moving “To A.P. Kern.” He hints at Clifford Jordan and other influences on the zig-zagging “Stressology,” and closes the album with “A Long March to Freedom,” a poignant note of affirmation for a struggle that, in some respects, continues.

Tracklist:

01 - Cherry - Sakura
02 - A Very Long Letter
03 - Let's Cool One
04 - To A.P. Kern
05 - Stressology
06 - Nobuko
07 - Blues for David
08 - A Long March to Freedom

Produced by Patrik Landolt (Intakt Records).
Recorded on April 30, 2016 by Michael Brändli at Studio SRF, Zürich.
Mixed and Mastered by Michael Brändli at Hardstudios, Winterthur.

Musicians:
Aki Takase - piano
David Murray - tenor saxophone, bass clarinet

Analyzed: Aki Takase & David Murray / Cherry / Sakura
––––––––––––––––––––––––––––––––––––––––

DR Peak RMS Duration Track
––––––––––––––––––––––––––––––––––––––––
DR10 -0.24 dB -13.44 dB 9:20 01-Cherry - Sakura
DR9 -0.17 dB -11.16 dB 5:44 02-A Very Long Letter
DR11 -0.20 dB -14.46 dB 5:41 03-Let's Cool One
DR10 -0.18 dB -13.62 dB 5:55 04-To A.P. Kern
DR10 -0.17 dB -12.16 dB 6:28 05-Stressology
DR12 -0.22 dB -15.38 dB 6:19 06-Nobuko
DR11 -0.19 dB -13.80 dB 4:52 07-Blues for David
DR9 -0.14 dB -12.07 dB 6:28 08-A Long March to Freedom
––––––––––––––––––––––––––––––––––––––––

Number of tracks: 8
Official DR value: DR10

Samplerate: 44100 Hz
Channels: 2
Bits per sample: 24
Bitrate: 1350 kbps
Codec: FLAC
================================================================================


Thanks to the Original customer!