Anna Kolchina - Dark Eyes (2016) SACD ISO + Hi-Res FLAC

Posted By: HDAtall
Anna Kolchina - Dark Eyes (2016) SACD ISO + Hi-Res FLAC

Anna Kolchina - Dark Eyes (2016) [Japan]
SACD Rip | SACD ISO | DSD64 2.0 > 1-bit/2.8224 MHz | 45:16 minutes | Front/Rear Covers | 1,48 GB
or FLAC(converted with foobar2000 to tracks) 24bit/88,2 kHz | Front/Rear Covers | 1024 MB

Anna Kolchina's mellow seductive voice has been heard around the world. Born in Russia (Republic of Bashkortostan) and graduate of the St.Petersburg State University of Cultural Arts, Anna has since performed and recorded with world class musicians from Russia, Europe and USA. In 2016, Anna released her sophomore record with Venus Records, “Dark Eyes”. On this album, she choose to be more hands on and wrote the arrangements for 6 songs which was played by Massimo Farao’s trio featuring Claudio Chiara- alto sax and Fulvio Albano- bari sax. “Dark Eyes” was in high rotation for weeks Virginia Muse radio in Amsterdam.

Tracklist:

01. Dark Eyes
02. The Shadow Of Your Smile
03. If You Never Come To Me
04. My Old Flame
05. Beautiful Love
06. Let's Face The Music And Dance
07. Time After Time
08. Angel Face
09. Witchcraft
10. Just Squeeze Me
11. Since I Feel For You
12. 'S Wonderful
13. They Say It's Wonderful

Produced, Mixed & Mastered by Tetsuo Hara. Engineered by Alessando Taricco.
Recorded on March 7-9, 2016 at Riverside Studios in Torino, Italy.
Venus Hyper Magnum Sound Direct Mix. VENUS Japan # VHGD-190.

Personnel
Anna Kolchina - vocals
Massimo Farao' - piano
Aldo Zunino - bass
Marco Tolotti - drums
Alessandro Fabbri - drums
Claudio Chiara - alto sax
Fulvio Albano - baritone sax

foobar2000 1.3.17 / Dynamic Range Meter 1.1.1

––––––––––––––––––––––––––––––––––––––––
Analyzed: ANNA KOLCHINA / Dark Eyes
––––––––––––––––––––––––––––––––––––––––

DR Peak RMS Duration Track
––––––––––––––––––––––––––––––––––––––––
DR9 -5.33 dB -16.40 dB 3:17 01-Dark Eyes
DR7 -4.46 dB -13.44 dB 4:29 02-The Shadow Of Your Smile
DR8 -4.53 dB -13.57 dB 3:31 03-If You Never Come To Me
DR8 -4.52 dB -14.65 dB 3:40 04-My Old Flame
DR8 -4.15 dB -13.43 dB 5:10 05-Beautiful Love
DR7 -4.46 dB -13.25 dB 3:04 06-Let's Face The Music And Dance
DR7 -4.44 dB -12.72 dB 4:19 07-Time After Time
DR7 -4.29 dB -13.53 dB 4:41 08-Angel Face
DR8 -4.57 dB -13.97 dB 4:02 09-Witchcraft
DR7 -4.59 dB -12.87 dB 2:59 10-Just Squeeze Me
DR7 -4.59 dB -13.75 dB 1:46 11-Since I Feel For You
DR8 -4.45 dB -13.76 dB 2:10 12-'S Wonderful
DR6 -4.78 dB -12.43 dB 2:08 13-They Say It's Wonderful
––––––––––––––––––––––––––––––––––––––––

Number of tracks: 13
Official DR value: DR7

Samplerate: 2822400 Hz / PCM Samplerate: 88200 Hz
Channels: 2
Bits per sample: 1
Bitrate: 5645 kbps
Codec: DSD64


Thanks to jazzyman!
Uncompressed SACD ISO size > 1,83 GB
>