Anna Kolchina - Street Of Dreams (2015) [Japan 2016] SACD ISO + Hi-Res FLAC

Posted By: HDAtall
Anna Kolchina - Street Of Dreams (2015) [Japan 2016] SACD ISO + Hi-Res FLAC

Anna Kolchina - Street Of Dreams (2015) [Japan 2016]
SACD Rip | SACD ISO | DSD64 2.0 > 1-bit/2.8224 MHz | 45:53 minutes | Front/Rear Covers | 1,53 GB
or FLAC(converted with foobar2000 to tracks) 24bit/88,2 kHz | Front/Rear Covers | 992 MB

Anna Kolchina's mellow seductive voice has been heard around the world. Born in Russia (Republic of Bashkortostan) and graduate of the St.Petersburg State University of Cultural Arts, Anna has since performed and recorded with world class musicians from Russia, Europe and USA. In 2015, Anna's debut album “Street of Dreams” was recorded with the world famous Italian jazz pianist Massimo Farao's trio in Turin, Italy. She signed under Japan based jazz label, Venus Records.

Tracklist:

01. Street Of Dreams
02. Just One Of Those Things
03. I Remember Clifford
04. Imagine My Frustration
05. The Good Life
06. Easy Living
07. Don't Fence Me In
08. I Didn't Know About You
09. As Long As I Live
10. Strollin'
11. Can't Help Loving Dat Man
12. I Hear Music

Produced, Mixed & Mastered by Tetsuo Hara. Engineered by Alessando Taricco.
Recorded on November 12, 2014 at Riverside Studios in Torino, Italy.
Venus Hyper Magnum Sound Direct Mix. VENUS Japan # VHGD-170.

Personnel
Anna Kolchina - vocals
Massimo Farao - piano
Aldo Zunino - bass
Marco Tolotti - drums

foobar2000 1.3.17 / Dynamic Range Meter 1.1.1

––––––––––––––––––––––––––––––––––––––––
Analyzed: ANNA KOLCHINA / Street Of Dreams
––––––––––––––––––––––––––––––––––––––––

DR Peak RMS Duration Track
––––––––––––––––––––––––––––––––––––––––
DR6 -4.88 dB -12.11 dB 4:05 01-Street Of Dreams
DR7 -4.57 dB -12.99 dB 2:49 02-Just One Of Those Things
DR6 -4.94 dB -13.21 dB 6:03 03-I Remember Clifford
DR6 -4.93 dB -12.68 dB 3:18 04-Imagine My Frustration
DR7 -4.50 dB -13.94 dB 3:00 05-The Good Life
DR6 -5.17 dB -14.06 dB 4:08 06-Easy Living
DR6 -4.82 dB -11.82 dB 3:31 07-Don't Fence Me In
DR6 -4.96 dB -12.77 dB 4:35 08-I Didn't Know About You
DR7 -4.70 dB -13.25 dB 3:42 09-As Long As I Live
DR7 -4.55 dB -13.92 dB 4:44 10-Strollin'
DR6 -5.08 dB -12.66 dB 3:38 11-Can't Help Loving Dat Man
DR6 -4.58 dB -12.11 dB 2:21 12-I Hear Music
––––––––––––––––––––––––––––––––––––––––

Number of tracks: 12
Official DR value: DR6

Samplerate: 2822400 Hz / PCM Samplerate: 88200 Hz
Channels: 2
Bits per sample: 1
Bitrate: 5645 kbps
Codec: DSD64


Thanks to jazzyman!
Uncompressed SACD ISO size > 1,86 GB
>