Dexter Walker & Zion Movement - Hope (2018) [Official Digital Download]

Posted By: HDV
Dexter Walker & Zion Movement - Hope (2018) [Official Digital Download]

Dexter Walker & Zion Movement - Hope (2018)
FLAC (tracks) 24-bit/44,1 kHz | Time - 90:45 minutes | 1,12 GB
Studio Master, Official Digital Download | Artwork: Front cover

From the Chicago choir that won the 2012 Verizon How Sweet the Sound search for the Best Church Choir in America, “Hope” is a confident declaration of soul comfort sung from within the everlasting arms of the LORD.

Tracklist:

01 - The Lord's Prayer
02 - All Power (feat. Jazmine Jones)
03 - If Any Man Be In Christ
04 - God Will Make A Way (feat. Joshua Jones)
05 - Be OK (feat. LaFayette E. Young Jr.)
06 - I'm In Christ
07 - Lord I Need You (feat. Latina Cunningham )
08 - I'm Saved
09 - My Hope Is In You (feat. Charlz Kay)
10 - Joy
11 - God's Got Me (feat. Min. Tim White )
12 - For The Rest Of My Life (feat. Venus Young)
13 - Lord You Brought Me (feat. B.Slade)
14 - Supernatural God
15 - Supernatural God ((Bionic Choir Remix) [feat. B.Slade]

Produced by Percy Bady.

Analyzed: Dexter Walker & Zion Movement / Hope
––––––––––––––––––––––––––––––––––––––––

DR Peak RMS Duration Track
––––––––––––––––––––––––––––––––––––––––
DR11 -0.24 dB -13.25 dB 3:41 01-The Lord's Prayer
DR9 -0.24 dB -10.89 dB 5:11 02-All Power (feat. Jazmine Jones)
DR11 -0.24 dB -13.47 dB 2:11 03-If Any Man Be In Christ
DR10 -0.24 dB -11.73 dB 7:00 04-God Will Make A Way (feat. Joshua Jones)
DR9 -0.24 dB -11.39 dB 7:15 05-Be OK (feat. LaFayette E. Young Jr.)
DR12 -0.24 dB -12.73 dB 4:46 06-I'm In Christ
DR10 -0.24 dB -13.50 dB 13:46 07-Lord I Need You (feat. Latina Cunningham )
DR8 -2.41 dB -12.18 dB 5:41 08-I'm Saved
DR9 -0.24 dB -11.87 dB 7:39 09-My Hope Is In You (feat. Charlz Kay)
DR10 -0.24 dB -12.06 dB 4:52 10-Joy
DR7 -3.71 dB -12.43 dB 6:23 11-God's Got Me (feat. Min. Tim White )
DR10 -0.24 dB -11.51 dB 4:41 12-For The Rest Of My Life (feat. Venus Young)
DR11 -0.24 dB -12.12 dB 4:12 13-Lord You Brought Me (feat. B.Slade)
DR12 -0.24 dB -13.47 dB 8:33 14-Supernatural God
DR5 -5.00 dB -10.98 dB 4:54 15-Supernatural God ((Bionic Choir Remix) [feat. B.Slade]
––––––––––––––––––––––––––––––––––––––––

Number of tracks: 15
Official DR value: DR10

Samplerate: 44100 Hz
Channels: 2
Bits per sample: 24
Bitrate: 1738 kbps
Codec: FLAC
================================================================================


Thanks to the Original customer!