Ella Fitzgerald Sings The George And Ira Gershwin Song Book (1959/2017) [Official Digital Download 24-bit/192kHz]

Posted By: HDV
Ella Fitzgerald Sings The George And Ira Gershwin Song Book (1959/2017) [Official Digital Download 24-bit/192kHz]

Ella Fitzgerald - Ella Fitzgerald Sings The George And Ira Gershwin Song Book (1959/2017)
FLAC (tracks) 24-bit/192 kHz | Time - 194:34 minutes | 8,25 GB
Studio Master, Official Digital Download | Artwork: Front cover

This 1959 six disc set from Ella Fitzgerald is the largest and most ambitious in her celebrated Song Book series, consisting of her interpretations of 59 Gershwin tunes, including her Grammy-winning version of But Not For Me. The album also marks Fitzgerald's first collaboration with arranger Nelson Riddle, a partnership that would yield further recordings in the 1960s.

The success of Ella Fitzgerald sings The George and Ira Gershwin Song book if measured in chart terms is at best average, spending just 5 weeks on the best seller list, but that is looking at this monumental recording from the wrong perspective. Ella takes songs that are much loved, and much played and makes them sound fresh and alive, new even. It did, however, win a Grammy for the Best Vocal Performance, Female at the 1960 ceremony. And let’s not forget, this was a five album set, one that has subsequently become a 4x album set, with alternate takes and other rarities. Immerse yourself in some of the greatest singing by any singer, anytime, anywhere…

Ella Fitzgerald was forty-one when she recorded this album, and at the peak of her vocal powers, demonstrated in the earlier Ella Fitzgerald Sings the Duke Ellington Song Book, and her two greatest live albums from this period, Ella in Berlin (1960) and Ella in Rome (1958). Like the other songbooks devoted to the Broadway composers, Fitzgerald gets only a single outlet for her notable scat singing, on "I Got Rhythm".

Tracklist:

CD1 #01 - Sam And Delilah
CD1 #02 - But Not For Me
CD1 #03 - My One And Only
CD1 #04 - Let's Call The Whole Thing Off
CD1 #05 - (I've Got) Beginner's Luck
CD1 #06 - Oh, Lady Be Good
CD1 #07 - Nice Work If You Can Get It
CD1 #08 - Things Are Looking Up
CD1 #09 - Just Another Rhumba
CD1 #10 - How Long Has This Been Going On?

CD2 #01 - 'S Wonderful
CD2 #02 - The Man I Love
CD2 #03 - That Certain Feeling
CD2 #04 - By Strauss
CD2 #05 - Someone To Watch Over Me
CD2 #06 - The Real American Folk Song
CD2 #07 - Who Cares?
CD2 #08 - Looking For A Boy
CD2 #09 - They All Laughed
CD2 #10 - My Cousin In Milwaukee
CD2 #11 - Somebody From Somewhere

CD3 #01 - A Foggy Day
CD3 #02 - Clap Yo' Hands
CD3 #03 - For You For Me For Evermore
CD3 #04 - Stiff Upper Lip
CD3 #05 - Boy Wanted
CD3 #06 - Strike Up The Band
CD3 #07 - Soon
CD3 #08 - I've Got A Crush On You
CD3 #09 - Bidin' My Time
CD3 #10 - Aren't You Kind Of Glad We Did?
CD3 #11 - Of Thee I Sing

CD4 #01 - The Half Of It Dearie Blues
CD4 #02 - I Was Doing All Right
CD4 #03 - He Loves And She Loves
CD4 #04 - Love Is Sweeping The Country
CD4 #05 - Treat Me Rough
CD4 #06 - Love Is Here To Stay
CD4 #07 - Slap That Bass
CD4 #08 - Isn't It A Pity
CD4 #09 - Shall We Dance?
CD4 #10 - Love Walked In
CD4 #11 - You've Got What Gets Me

CD5 #01 - They Can't Take That Away From Me
CD5 #02 - Embraceable You
CD5 #03 - I Can't Be Bothered Now
CD5 #04 - Boy What Love Has Done To Me
CD5 #05 - Fascinating Rhythm
CD5 #06 - Funny Face
CD5 #07 - Lorelei
CD5 #08 - Oh So Nice
CD5 #09 - Let's Kiss And Make Up
CD5 #10 - I Got Rhythm

01 - Promenade (Walking The Dog) [Nelson Riddle & His Orchestra]
02 - March Of The Swiss Soldiers [Nelson Riddle & His Orchestra]
03 - Fidgety Feet [Nelson Riddle & His Orchestra]
04 - Prelude I [Nelson Riddle & His Orchestra]
05 - Prelude II [Nelson Riddle & His Orchestra]
06 - Prelude III [Nelson Riddle & His Orchestra]

Produced by Norman Granz.
Recorded at Capitol Studios, Hollywood on January 5-8, March 18 and 26, and July 15-17, 1959.
Digitally Remastered.

NOTE: The Mastering is absolute the same as on 2013's HDTracks edition,
but with addition an additional content - placed on "disc 6".

Ella Fitzgerald, vocals
Nelson Riddle, arranger, conductor
Don Fagerquist, trumpet
Pete Candoli, trumpet
Joe Triscari, trumpet
Conrad Gozzo, trumpet
Cappy Lewis, trumpet
Vito Mangano, trumpet
Mannie Klein, trumpet
Dale McMickle, trumpet
Shorty Sherock, trumpet
Milt Bernhart, trombone
James Priddy, trombone
Juan Tizol, trombone
Richard Noel, trombone
Tommy Pederson, trombone
Karl DeKarske, bass trombone
George Roberts, bass trombone
Vincent DeRosa, French horns
James Decker, French horns
Ed Gilbert, tuba
Red Callender, tuba
Ted Nash, alto saxophone
Benny Carter, alto saxophone
Ronnie Lang, alto saxophone
Plas Johnson, tenor saxophone
Chuck Gentry, bass saxophone
Paul Smith, piano
Lou Levy, piano
Herb Ellis, guitar
Barney Kessel, guitar
Joe Comfort, double bass
Ralph Pena, double bass
Alvin Stoller, drums
Mel Lewis, drums
Bill Richmond, drums
Frank Flynn, percussion
Larry Bunker, percussion

Analyzed: Ella Fitzgerald / Ella Fitzgerald Sings The George And Ira Gershwin Song Book (1-53)
Nelson Riddle & His Orchestra / Ella Fitzgerald Sings The George And Ira Gershwin Song Book (54-59)
––––––––––––––––––––––––––––––––––––––––

DR Peak RMS Duration Track
––––––––––––––––––––––––––––––––––––––––
DR10 -1.00 dB -14.24 dB 3:17 01-Sam And Delilah
DR10 -2.85 dB -16.17 dB 3:34 02-But Not For Me
DR11 -1.43 dB -14.22 dB 2:38 03-My One And Only
DR11 -1.00 dB -14.56 dB 4:29 04-Let's Call The Whole Thing Off
DR11 -1.00 dB -15.27 dB 3:12 05-(I've Got) Beginner's Luck
DR11 0.00 dB -14.64 dB 4:02 06-Oh, Lady Be Good
DR12 0.00 dB -15.95 dB 3:34 07-Nice Work If You Can Get It
DR11 0.00 dB -13.05 dB 3:06 08-Things Are Looking Up
DR11 0.00 dB -13.78 dB 5:37 09-Just Another Rhumba
DR12 -1.20 dB -16.92 dB 3:49 10-How Long Has This Been Going On?
DR11 -1.08 dB -14.95 dB 3:31 01-'S Wonderful
DR11 -2.11 dB -17.86 dB 3:53 02-The Man I Love
DR11 -1.81 dB -16.21 dB 3:05 03-That Certain Feeling
DR11 -1.20 dB -16.07 dB 2:33 04-By Strauss
DR11 -3.19 dB -17.51 dB 4:34 05-Someone To Watch Over Me
DR10 -1.52 dB -15.27 dB 3:47 06-The Real American Folk Song
DR11 -0.35 dB -14.70 dB 3:08 07-Who Cares?
DR10 -0.54 dB -14.66 dB 3:06 08-Looking For A Boy
DR10 -0.24 dB -13.76 dB 3:05 09-They All Laughed
DR10 0.00 dB -13.26 dB 3:10 10-My Cousin In Milwaukee
DR11 -2.15 dB -18.01 dB 3:10 11-Somebody From Somewhere
DR11 -1.52 dB -16.46 dB 3:34 01-A Foggy Day
DR12 -0.46 dB -15.30 dB 2:31 02-Clap Yo' Hands
DR10 -0.99 dB -16.12 dB 3:26 03-For You For Me For Evermore
DR11 0.00 dB -13.67 dB 2:53 04-Stiff Upper Lip
DR11 -0.24 dB -14.67 dB 3:36 05-Boy Wanted
DR11 -0.50 dB -14.10 dB 2:38 06-Strike Up The Band
DR12 -1.09 dB -15.30 dB 2:23 07-Soon
DR11 -3.01 dB -18.22 dB 3:30 08-I've Got A Crush On You
DR11 0.00 dB -14.82 dB 2:43 09-Bidin' My Time
DR12 -3.11 dB -18.40 dB 3:31 10-Aren't You Kind Of Glad We Did?
DR11 -0.05 dB -15.06 dB 3:11 11-Of Thee I Sing
DR12 -0.66 dB -16.75 dB 3:49 01-The Half Of It Dearie Blues
DR12 -0.94 dB -16.48 dB 3:29 02-I Was Doing All Right
DR13 -0.63 dB -17.38 dB 2:50 03-He Loves And She Loves
DR12 0.00 dB -15.93 dB 3:26 04-Love Is Sweeping The Country
DR12 -0.41 dB -15.88 dB 2:59 05-Treat Me Rough
DR13 -0.51 dB -17.08 dB 3:56 06-Love Is Here To Stay
DR12 -1.14 dB -16.48 dB 3:26 07-Slap That Bass
DR12 -2.84 dB -18.68 dB 3:27 08-Isn't It A Pity
DR12 -1.30 dB -16.00 dB 3:10 09-Shall We Dance?
DR12 -2.62 dB -17.70 dB 3:54 10-Love Walked In
DR12 0.00 dB -14.94 dB 2:20 11-You've Got What Gets Me
DR11 -0.50 dB -15.43 dB 3:11 01-They Can't Take That Away From Me
DR11 -0.59 dB -16.20 dB 4:53 02-Embraceable You
DR12 -0.50 dB -16.20 dB 2:51 03-I Can't Be Bothered Now
DR10 -0.50 dB -14.05 dB 3:49 04-Boy What Love Has Done To Me
DR11 -0.50 dB -15.22 dB 3:26 05-Fascinating Rhythm
DR12 -0.56 dB -17.48 dB 3:25 06-Funny Face
DR11 -0.50 dB -14.93 dB 3:23 07-Lorelei
DR12 -0.50 dB -14.97 dB 3:40 08-Oh So Nice
DR12 -0.50 dB -14.94 dB 3:52 09-Let's Kiss And Make Up
DR12 -0.67 dB -16.06 dB 3:11 10-I Got Rhythm
DR11 -4.86 dB -20.56 dB 2:32 01-Promenade (Walking The Dog)
DR12 -3.90 dB -20.58 dB 2:03 02-March Of The Swiss Soldiers
DR13 -0.40 dB -19.03 dB 2:42 03-Fidgety Feet
DR11 -4.54 dB -19.32 dB 1:36 04-Prelude I
DR12 -5.34 dB -24.67 dB 3:48 05-Prelude II
DR12 -2.96 dB -19.84 dB 1:09 06-Prelude III
––––––––––––––––––––––––––––––––––––––––

Number of tracks: 59
Official DR value: DR11

Samplerate: 192000 Hz
Channels: 2
Bits per sample: 24
Bitrate: 2997 kbps
Codec: FLAC
================================================================================


Thanks to the Original customer!