Michael Gielen, SWR Sinfonieorchestra - Arnold Schonberg: Gurrelieder (2007) PS3 ISO + Hi-Res FLAC

Posted By: HDAtall
Michael Gielen, SWR Sinfonieorchestra - Arnold Schonberg: Gurrelieder (2007) PS3 ISO + Hi-Res FLAC

Michael Gielen, SWR Sinfonieorchestra Baden-Baden und Freiburg - Arnold Schönberg: Gurrelieder (2007)
PS3 Rip | 2x SACD ISO | DST64 2.0 & 5.1 > 1-bit/2.8224 MHz | 121:41 minutes | Scans included | 8,41 GB
or FLAC 2.0 Stereo (converted with foobar2000 to tracks) 24bit/88,2 kHz | Full Scans included | 2,33 GB
Features Stereo & Multichannel Surround Sound / Hänssler Classic # SACD 093.198

Because the release of this magnificent SACD of Arnold Schoenberg's Gurrelieder was intended to celebrate conductor Michael Gielen's 80th birthday, the enterprise seems a fitting present to him, since few conductors have been more devoted to the composer's cause; this brilliant performance appears to be a fulfillment of Gielen's long-held wish to record this mammoth oratorio with maximum clarity and lustrous sound.

Few recordings of Gurrelieder can match this one for its crystalline details and clean textures, a necessity in this fantastically dense work; even though Schoenberg's orchestration is more layered and filigreed than anything found in Wagner or Mahler, Gielen makes the heaviest counterpoint sound utterly transparent, and the singers and orchestral parts are given ideal separation and balance. The lyrical parts of the lovers Waldemar and Tove are sung with beautiful tone and credible presence by tenor Robert Dean Smith and soprano Melanie Diener, and the supporting solos of mezzo-soprano Yvonne Naef as the Wood Dove, baritone Ralf Lukas as the Peasant, tenor Gerhard Siegel as Klaus the Jester, and Andreas Schmidt as the speaker, are suitably characterized and welcome for the dramatic contrasts they provide. The combined ensembles of the SWR Baden-Baden and Freiburg Symphony Orchestra, the Bavarian Radio Chorus, and the Middle German Radio Chorus, Leipzig, make this a truly potent recording in terms of volume and sonorities, so audiophiles who want to hear music of vast physical dimensions and extraordinary dynamic range will luxuriate in the sumptuous reproduction. Highly recommended.

Tracklist:

01. Part 1: Orchestervorspiel
02. Nun dämpft die Dämm'rung jeden Ton
03. O, wenn des Mondes Strahlen
04. Ross! Mein Ross!
05. Sterne jubeln
06. So tanzen die Engel vor Gottes Thron nicht
07. Nun sag ich dir zum ersten Mal
08. Es ist Mitternachtszeit
09. Du sendest mir einen Liebesblick
10. Du wunderliche Tove!
11. Orchesterzwischenspiel
12. Tauben von Gurre!
13. Part 2: Herrgott, weißt du, was du tatest
14. Part 3: Erwacht, König Waldemars Mannen wert!
15. Deckel des Sarges klappert
16. Gegrüßt, o König
17. Mit Toves Stimme flüstert der Wald
18. Ein seltsamer Vogel ist so'n Aal
19. Du strenger Richter droben
20. Der Hahn erhebt den Kopf zur Kraht
21. Orchestervorspiel
22. Herr Gänsefuß, Frau Gänsekraut
23. Seht die Sonne

Personnel
Melanie Diener (Tove), Yvonne Naef (Waldtaube), Robert Dean Smith (Waldemar), Gerhard Siegel (Klaus-Narr), Ralf Lukas (Bauer), Andreas Schmidt (Sprecher)
SWR Sinfonieorchester Baden-Baden und Freiburg - Conducted by Michael Gielen
Chor des Bayerischen Rundfunks & MDR Rundfunkchor Leipzig.

Analyzed: Michael Gielen, SWR Sinfonieorchestra Baden-Baden und Freiburg / Arnold Schönberg: Gurrelieder
––––––––––––––––––––––––––––––––––––––––

DR Peak RMS Duration Track
––––––––––––––––––––––––––––––––––––––––
DR13 -6.94 dB -26.83 dB 5:41 01-Part 2: Herrgott, weißt du, was du tatest
DR13 -11.66 dB -36.62 dB 5:20 02-Nun dämpft die Dämm'rung jeden Ton
––––––––––––––––––––––––––––––––––––––––

Number of tracks: 2
Official DR value: DR13

Samplerate: 2822400 Hz / PCM Samplerate: 88200 Hz
Channels: 6
Bits per sample: 1
Bitrate: 16934 kbps
Codec: DST64
================================================================================

––––––––––––––––––––––––––––––––––––––––
Analyzed: Michael Gielen, SWR Sinfonieorchestra Baden-Baden und Freiburg / Arnold Schönberg: Gurrelieder
––––––––––––––––––––––––––––––––––––––––

DR Peak RMS Duration Track
––––––––––––––––––––––––––––––––––––––––
DR12 -6.74 dB -25.99 dB 2:23 02-Part 3: Erwacht, König Waldemars Mannen wert!
DR15 -6.28 dB -28.69 dB 4:08 03-Deckel des Sarges klappert
DR16 -6.30 dB -31.86 dB 3:13 03-O, wenn des Mondes Strahlen
DR12 -6.24 dB -23.51 dB 4:47 04-Gegrüßt, o König
DR13 -6.57 dB -25.91 dB 3:25 04-Ross! Mein Ross!
DR14 -9.97 dB -34.67 dB 6:04 05-Mit Toves Stimme flüstert der Wald
DR12 -6.80 dB -26.72 dB 2:15 05-Sterne jubeln
DR15 -6.44 dB -30.52 dB 7:35 06-Ein seltsamer Vogel ist so'n Aal
DR12 -8.18 dB -31.72 dB 3:10 06-So tanzen die Engel vor Gottes Thron nicht
DR13 -6.48 dB -26.77 dB 3:01 07-Du strenger Richter droben
DR13 -10.30 dB -32.47 dB 4:27 07-Nun sag ich dir zum ersten Mal
DR16 -6.48 dB -34.89 dB 6:35 08-Der Hahn erhebt den Kopf zur Kraht
DR16 -6.86 dB -31.08 dB 7:02 08-Es ist Mitternachtszeit
DR13 -18.79 dB -40.38 dB 3:33 09-Orchestervorspiel
DR14 -6.96 dB -30.27 dB 5:56 09-Du sendest mir einen Liebesblick
DR15 -7.94 dB -34.38 dB 6:04 10-Herr Gänsefuß, Frau Gänsekraut
DR14 -10.20 dB -34.22 dB 5:05 10-Du wunderliche Tove!
DR13 -6.96 dB -28.86 dB 5:37 11-Orchesterzwischenspiel
––––––––––––––––––––––––––––––––––––––––

Number of tracks: 18
Official DR value: DR14

Samplerate: 2822400 Hz / PCM Samplerate: 88200 Hz
Channels: 6
Bits per sample: 1
Bitrate: 16934 kbps
Codec: DST64
================================================================================

––––––––––––––––––––––––––––––––––––––––
Analyzed: Michael Gielen, SWR Sinfonieorchestra Baden-Baden und Freiburg / Arnold Schönberg: Gurrelieder
––––––––––––––––––––––––––––––––––––––––

DR Peak RMS Duration Track
––––––––––––––––––––––––––––––––––––––––
DR12 -6.32 dB -21.90 dB 6:18 11-Seht die Sonne
DR18 -6.82 dB -30.80 dB 13:38 12-Tauben von Gurre!
––––––––––––––––––––––––––––––––––––––––

Number of tracks: 2
Official DR value: DR15

Samplerate: 2822400 Hz / PCM Samplerate: 88200 Hz
Channels: 6
Bits per sample: 1
Bitrate: 16934 kbps
Codec: DST64
================================================================================

––––––––––––––––––––––––––––––––––––––––
Analyzed: Michael Gielen, SWR Sinfonieorchestra Baden-Baden und Freiburg / Arnold Schönberg: Gurrelieder
––––––––––––––––––––––––––––––––––––––––

DR Peak RMS Duration Track
––––––––––––––––––––––––––––––––––––––––
DR12 -6.72 dB -23.23 dB 5:41 01-Part 2: Herrgott, weißt du, was du tatest
DR14 -12.09 dB -31.99 dB 6:24 01-Part 1: Orchestervorspiel
DR14 -10.61 dB -32.37 dB 5:20 02-Nun dämpft die Dämm'rung jeden Ton
DR10 -6.34 dB -22.15 dB 2:23 02-Part 3: Erwacht, König Waldemars Mannen wert!
DR12 -6.18 dB -24.83 dB 4:08 03-Deckel des Sarges klappert
DR15 -6.53 dB -27.36 dB 3:13 03-O, wenn des Mondes Strahlen
DR9 -6.43 dB -19.89 dB 4:47 04-Gegrüßt, o König
DR10 -6.28 dB -21.30 dB 3:25 04-Ross! Mein Ross!
DR14 -10.71 dB -31.19 dB 6:04 05-Mit Toves Stimme flüstert der Wald
DR11 -6.64 dB -22.29 dB 2:15 05-Sterne jubeln
DR16 -6.71 dB -27.80 dB 7:35 06-Ein seltsamer Vogel ist so'n Aal
DR13 -6.82 dB -25.17 dB 3:10 06-So tanzen die Engel vor Gottes Thron nicht
DR11 -5.81 dB -23.82 dB 3:01 07-Du strenger Richter droben
DR12 -8.95 dB -27.16 dB 4:27 07-Nun sag ich dir zum ersten Mal
DR16 -6.58 dB -31.46 dB 6:35 08-Der Hahn erhebt den Kopf zur Kraht
DR15 -6.82 dB -27.99 dB 7:02 08-Es ist Mitternachtszeit
DR13 -18.82 dB -38.53 dB 3:33 09-Orchestervorspiel
DR14 -6.60 dB -26.01 dB 5:56 09-Du sendest mir einen Liebesblick
DR16 -7.54 dB -31.12 dB 6:04 10-Herr Gänsefuß, Frau Gänsekraut
DR13 -9.45 dB -29.35 dB 5:05 10-Du wunderliche Tove!
DR10 -6.60 dB -22.01 dB 5:37 11-Orchesterzwischenspiel
DR9 -6.16 dB -19.53 dB 6:18 11-Seht die Sonne
DR15 -6.64 dB -27.12 dB 13:38 12-Tauben von Gurre!
––––––––––––––––––––––––––––––––––––––––

Number of tracks: 23
Official DR value: DR13

Samplerate: 2822400 Hz / PCM Samplerate: 88200 Hz
Channels: 2
Bits per sample: 1
Bitrate: 5645 kbps
Codec: DST64


Thanks to ManWhoCan!
Uncompressed SACD ISO size > 4,09 + 3,91 GB
>