Henry Mancini - Return Of The Pink Panther & Symphonic Soul (1975) [Reissue 2018] PS3 ISO + Hi-Res FLAC

Posted By: HDAtall
Henry Mancini - Return Of The Pink Panther & Symphonic Soul (1975) [Reissue 2018] PS3 ISO + Hi-Res FLAC

Henry Mancini - Return Of The Pink Panther / Symphonic Soul (1975) [Reissue 2018]
PS3 Rip | SACD ISO | DST64 2.0 & 5.1 > 1-bit/2.8224 MHz | 70:57 minutes | Basic Scans included | 3,25 GB
or FLAC 2.0 Stereo (converted with foobar2000 to tracks) 24bit/88,2 kHz | 71:23 | Basic Scans | 1,44 GB
2LP on 1SACD | Features Stereo and Multichannel surround sound | Label: Vocalion # CDSML 8535

Two cool Henry Mancini album – one soundtrack, and one sweet set of instrumentals! Return Of The Pink Panther is a surprisingly groovy record – and one that's very different from the original Pink Panther soundtrack. Symphonic Soul is one of Henry Mancini's grooviest LPs from the 70s – a mixture of tight large arrangements with a smooth funky edge, similar to some of his best soundtrack work at the time. The rhythm section is great – with Harvey Mason on drums and Joe Sample on keyboards, and guitar by David T Walker and Dennis Budimir – and the album also features some cool solos on instruments like African finger piano and piccolo trumpet.

Vocalion have returned to familiar territory with their release of Henry Mancini’s twofer CD The Return of the Pink Panther / Symphonic Soul (CDSML 8535). Released in 1975, both albums were also launched in Stereo and Quadrophonic versions. So it’s nice to see Vocalion’s CD make a welcome debut on the hybrid SACD format. As far as Mancini pairings go, this selection works extremely well. The choice of Return of the Pink Panther is undoubtedly a smart move as it is arguably the best of the Panther soundtracks. Recorded at London’s CTS studios, there’s a nice range of styles spread across this memorable score. Released on the cusp of the disco era, there’s naturally a great deal of funky guitar riffs (provided by session musician Alan Parker) as well as some beautiful pieces such as ‘Dreamy’ which saw Mancini himself take to the piano. The highlight piece is arguably The Return of the Pink Panther (parts 1 & 2) which accompanied the theft of the Pink Panther diamond. It’s a great piece of composition which incorporates both the Pink Panther theme, a slow (but increasing dramatic) tension builder and a full on frenzy of brass and strings for its climax.

Supporting Mancini’s soundtrack release is his studio album, Symphonic Soul. The album was recorded in L.A. and manages to merge the funky mid 70s sound with Mancini’s lush orchestrations. Mancini brought a few of his own new compositions to the album including the wonderful title track. He also took this opportunity to introduce a new souped-up version of his memorable Peter Gunn theme. There’s also some well-established period pieces to be found among the track listing including a great variation of The Average White Band’s funk anthem ‘Pick up the pieces’ and Herbie Hancock’s ‘Butterfly’.
Vocalion’s mastering by Michael J. Dutton (from the original master tapes) is reflective of the label’s usual high standards whilst a detailed 8 page booklet rounds off the packaging perfectly.

Tracklist:

01. The Pink Panther Theme
02. The Greatest Gift instrumental
03. Heres Looking at You Kid
04. Summer in Gstaad
05. So Smooth
06. The Return of the Pink Panther Part 1 & 2
07. The Greatest Gift vocal version
08. The Orange Float
09. Dreamy
10. Disco
11. Navel Manoeuvre
12. Belly Belly Bum Bum
13. The Wet Look
14. Symphonic Soul
15. Butterfly
16. Satin Soul
17. Peter Gunn new version
18. Slow Hot Wind Lujon
19. Pick up the Pieces
20. Sun Goddess
21. Soul Saga Song of the Buffalo Soldier
22. African Symphony

Tracks "01-13" is "The Return of the Pink Panther" (LP '1975)
Tracks "14-22" is "Chet Atkins Picks the Best" (LP '1975)

Remastered from the Original Master tapes by Michael J. Dutton.

foobar2000 1.3.17 / Dynamic Range Meter 1.1.1

––––––––––––––––––––––––––––––––––––––––
Analyzed: Henry Mancini / Return of the Pink Panther
––––––––––––––––––––––––––––––––––––––––

DR Peak RMS Duration Track
––––––––––––––––––––––––––––––––––––––––
DR9 -7.90 dB -28.79 dB 3:05 01-The Pink Panther Theme
DR7 -10.77 dB -28.12 dB 2:21 02-The Greatest Gift instrumental
DR8 -10.54 dB -27.05 dB 2:52 03-Heres Looking at You Kid
DR7 -10.53 dB -28.14 dB 2:03 04-Summer in Gstaad
DR8 -11.18 dB -30.19 dB 4:10 05-So Smooth
DR8 -8.49 dB -28.63 dB 5:11 06-The Return of the Pink Panther Part 1 & 2
DR8 -10.36 dB -28.17 dB 3:22 07-The Greatest Gift vocal version
DR7 -10.86 dB -28.36 dB 3:11 08-The Orange Float
DR7 -10.91 dB -28.81 dB 3:24 09-Dreamy
DR7 -7.75 dB -23.57 dB 2:07 10-Disco
DR7 -10.70 dB -28.77 dB 2:15 11-Navel Manoeuvre
DR9 -8.79 dB -26.03 dB 2:15 12-Belly Belly Bum Bum
DR7 -7.72 dB -25.26 dB 3:07 13-The Wet Look
DR7 -8.95 dB -24.33 dB 2:28 14-Symphonic Soul
DR9 -7.83 dB -27.81 dB 4:50 15-Butterfly
DR7 -8.50 dB -24.34 dB 3:09 16-Satin Soul
DR7 -8.20 dB -24.91 dB 4:34 17-Peter Gunn new version
DR8 -8.57 dB -28.13 dB 2:46 18-Slow Hot Wind Lujon
DR7 -8.73 dB -25.35 dB 3:39 19-Pick up the Pieces
DR8 -9.20 dB -25.17 dB 3:36 20-Sun Goddess
DR6 -8.03 dB -23.12 dB 3:14 21-Soul Saga Song of the Buffalo Soldier
DR8 -9.71 dB -26.46 dB 3:17 22-African Symphony
––––––––––––––––––––––––––––––––––––––––

Number of tracks: 22
Official DR value: DR8

Samplerate: 2822400 Hz / PCM Samplerate: 88200 Hz
Channels: 6
Bits per sample: 1
Bitrate: 16934 kbps
Codec: DST64
================================================================================

––––––––––––––––––––––––––––––––––––––––
Analyzed: Henry Mancini / Return of the Pink Panther
––––––––––––––––––––––––––––––––––––––––

DR Peak RMS Duration Track
––––––––––––––––––––––––––––––––––––––––
DR13 -8.34 dB -25.52 dB 3:05 01-The Pink Panther Theme
DR11 -11.38 dB -25.32 dB 2:21 02-The Greatest Gift instrumental
DR12 -9.77 dB -24.37 dB 2:52 03-Heres Looking at You Kid
DR10 -10.41 dB -23.49 dB 2:03 04-Summer in Gstaad
DR11 -12.02 dB -26.15 dB 4:10 05-So Smooth
DR12 -8.22 dB -25.36 dB 5:11 06-The Return of the Pink Panther Part 1 & 2
DR11 -9.03 dB -24.99 dB 3:22 07-The Greatest Gift vocal version
DR11 -10.67 dB -24.42 dB 3:11 08-The Orange Float
DR11 -11.86 dB -25.93 dB 3:24 09-Dreamy
DR11 -8.90 dB -21.81 dB 2:07 10-Disco
DR12 -11.62 dB -26.82 dB 2:15 11-Navel Manoeuvre
DR13 -8.82 dB -23.38 dB 2:15 12-Belly Belly Bum Bum
DR12 -7.60 dB -22.68 dB 3:07 13-The Wet Look
DR11 -7.21 dB -20.52 dB 2:28 14-Symphonic Soul
DR14 -8.12 dB -25.77 dB 4:50 15-Butterfly
DR12 -6.02 dB -21.81 dB 3:09 16-Satin Soul
DR12 -7.13 dB -22.47 dB 4:34 17-Peter Gunn new version
DR12 -6.01 dB -23.83 dB 2:46 18-Slow Hot Wind Lujon
DR12 -6.28 dB -21.32 dB 3:39 19-Pick up the Pieces
DR12 -8.39 dB -23.23 dB 3:36 20-Sun Goddess
DR11 -7.41 dB -21.69 dB 3:14 21-Soul Saga Song of the Buffalo Soldier
DR12 -6.07 dB -21.79 dB 3:44 22-African Symphony
––––––––––––––––––––––––––––––––––––––––

Number of tracks: 22
Official DR value: DR12

Samplerate: 2822400 Hz / PCM Samplerate: 88200 Hz
Channels: 2
Bits per sample: 1
Bitrate: 5645 kbps
Codec: DST64


Thanks to KingCrim!
Uncompressed SACD ISO size > 3,08 GB
>