Hue and Cry - Next Move (1999) SACD ISO + Hi-Res FLAC

Posted By: HDAtall
Hue and Cry - Next Move (1999) SACD ISO + Hi-Res FLAC

Hue & Cry - Next Move (1999)
SACD Rip | SACD ISO | DSD64 2.0 > 1-bit/2.8224 MHz | 51:34 minutes | Front/Rear Covers | 1,54 GB
or FLAC(converted with foobar2000 to tracks) 24bit/88,2 kHz | Front/Rear Covers | 1,12 GB

Next Move is the 11th album in a career that took off after Hue and Cry, the stage name of brothers Pat Kane and Greg Kane, opened for Madonna in 1986. Since then, they have done quite well, sitting at the U.K. Top of the Charts on more than one occasion. The album combines elements of jazz, rock, and pop. To better assess the performance, the album should be broken up into two categories, the music and the words, which rarely come together here, at least in the way generally represented in jazz vocalizing.

The music takes your breath away. After the first few bars of the opening tune, your hips are bouncing and your foot is tapping to the beats of heavy bass and keyboard-created organ weaving in, out, and around a wailing soprano sax all driven by Ian Thomas' often jagged, dissonant drum rhythms. The wildest cut on the CD is "24/7," a raucous six-plus minutes on the musical wild side leaving you gasping. Since the words can barely be heard over the music, the lyrics to the tunes and Pat Kane's vocalizing are irrelevant, except for the two ballads on the set. The lyrics to these tunes are another matter. Most of them are depressing, maudlin, or whining and tell stories of protagonists who always seem to be hurting. "Once in a Lifetime" asks the question "Will I jump or step back when I hear the whip crack?," a modern-day version of the conundrum expressed in Hamlet's "To be or not to be?" The two ballads, "Sonny Cried," by Harry Connick, Jr., and "Pawn of the Weekend" also relate hapless situations. The latter is the last cut on the album and is a welcome respite from the wildness that preceded it. Interesting music that it is, the protagonist is another loser as he is "last to be set up, first to be used, rules of the contest are not his to choose." This album is not for those who have recently experienced emotional trauma.

Tracklist:

01. She Moves Through The Wires
02. I Didn't Know
03. Sign O' the Times
04. Sonny Cried
05. Once in a Lifetime
06. Next Move
07. 24/7
08. Speed O'lite
09. Pawn of the Weekend

Produced by Greg Kane. Mastered by Tony Bridge.

foobar2000 1.3.17 / Dynamic Range Meter 1.1.1

––––––––––––––––––––––––––––––––––––––––
Analyzed: Hue & Cry / Next Move
––––––––––––––––––––––––––––––––––––––––

DR Peak RMS Duration Track
––––––––––––––––––––––––––––––––––––––––
DR16 -4.66 dB -23.68 dB 6:56 01-She Moves Through The Wires
DR14 -3.47 dB -19.46 dB 5:46 02-I Didn't Know
DR14 -4.03 dB -20.95 dB 5:44 03-Sign O' the Times
DR11 -9.50 dB -24.20 dB 5:55 04-Sonny Cried
DR14 -6.42 dB -21.97 dB 5:31 05-Once in a Lifetime
DR13 -6.04 dB -21.38 dB 5:46 06-Next Move
DR14 -5.98 dB -22.19 dB 6:48 07-24/7
DR14 -5.08 dB -21.49 dB 4:51 08-Speed O'lite
DR12 -10.22 dB -26.03 dB 4:17 09-Pawn of the Weekend
––––––––––––––––––––––––––––––––––––––––

Number of tracks: 9
Official DR value: DR14

Samplerate: 2822400 Hz / PCM Samplerate: 88200 Hz
Channels: 2
Bits per sample: 1
Bitrate: 5645 kbps
Codec: DSD64


Thanks to jazzyman!
Uncompressed SACD ISO size > 2,06 GB
>