Subcategories

The Jimmy Cobb Quartet - Cobb's Corner (2007) [Official Digital Download 24/96]

Posted By: HDV
The Jimmy Cobb Quartet - Cobb's Corner (2007) [Official Digital Download 24/96]

The Jimmy Cobb Quartet - Cobb's Corner (2007)
FLAC (tracks) 24-bit/96 kHz | Time - 56:24 minutes | 1,12 GB
Studio Master, Official Digital Download | Artwork: Digital booklet

Jazz drummer Jimmy Cobb is perhaps most famous in his role as the backbone to Miles Davis's best albums, but the unstoppable Cobb is also an excellent band leader in his own right, as evidenced here.

Jazz drummer Jimmy Cobb is perhaps most famous for his role as the backbone to Miles Davis's best albums, but the unstoppable Cobb is also an excellent band leader in his own right, as evidenced in his latest release for Chesky Records, Cobb's Corner. This recording captures the Jimmy Cobb that jazz listeners who've followed his long, gratifying career expect. Cobb's Corner finds Jimmy filling out his rhythm section with legendary New York pianist Ronnie Mathews and renowned bassist Peter Washington. The chief soloist on the record is Roy Hargrove, perhaps the most versatile and surefire trumpeter to emerge in the wake of Wynton Marsalis. The musician's fortright embrace of American standards, their personal interpretations of delectable melodies and their collective, highly interactive improvisations make this a must have for any jazz aficionado. This super audio compact disc was recorded using Chesky's state of the art minimalist miking techniques to create an outstanding addition to any audiophiles collection.

Tracklist:

01 - You And The Night And The Music
02 - My Romance
03 - Never Let Me Go
04 - John Charles
05 - My Foolish Heart
06 - I May Be Wrong
07 - Lotus Blossom
08 - Book's Bossa
09 - Ruby My Dear
10 - My Ship

Produced by David Chesky. Recorded on November 15, 2006.
Engineered, Edited & Mastered by Nicholas Prout.

Musicians:
Jimmy Cobb - drums
Roy Hargrove - flugelhorn, trumpet
Ronnie Mathews - piano
Peter Washington - bass


Analyzed: The Jimmy Cobb Quartet / Cobb's Corner
––––––––––––––––––––––––––––––––––––––––

DR Peak RMS Duration Track
––––––––––––––––––––––––––––––––––––––––
DR18 0.00 dB -21.50 dB 5:11 01-You And The Night And The Music
DR18 0.00 dB -21.58 dB 6:29 02-My Romance
DR16 -0.36 dB -22.37 dB 6:21 03-Never Let Me Go
DR19 -0.08 dB -23.43 dB 4:44 04-John Charles
DR18 -0.17 dB -23.05 dB 6:26 05-My Foolish Heart
DR19 -0.85 dB -22.48 dB 3:13 06-I May Be Wrong
DR16 -2.83 dB -24.56 dB 6:37 07-Lotus Blossom
DR18 0.00 dB -22.43 dB 6:25 08-Book's Bossa
DR15 -5.57 dB -25.54 dB 5:01 09-Ruby My Dear
DR19 -0.13 dB -25.36 dB 5:57 10-My Ship
––––––––––––––––––––––––––––––––––––––––

Number of tracks: 10
Official DR value: DR17

Samplerate: 96000 Hz
Channels: 2
Bits per sample: 24
Bitrate: 2709 kbps
Codec: FLAC
================================================================================


Thanks to the Original customer!

George Coleman, Mike Stern, Ron Carter & Jimmy Cobb - 4 Generations Of Miles
Jimmy Cobb - Jazz In The Key Of Blue

.